2 сезон

iTunes

MVO

1

2 сезон

iTunes

iTunes

1 сезон

RePack

30

Новинка

ВАЖНО

ИГРА 18+

pack

RePack

MK11
pack

Легкие деньги

RePack

jed

RePack

fifa19

RePack

RDR2

RePack

NEED FOR SPEED™ PAYBACK

4 сезон

9 сезон

Бесстыжие 9 сезон

Все сериалы

все сериалы на PB.wtf

RePack

FAR CRY 5

Anonymous, доброе утро, мы не успеваем собрать деньги на оплату серверов за декабрь и январь, помогите нам пожалуйста в это трудное время. В качестве благодарности мы отключим Вам всю рекламу на сайте (укажите свой ник в строку Ваше имя)!

×
  
Magnet ссылка

Gilla - The Video Hits Collection [2016 г., Pop, Disco, WEBRip, Оригинальный] pb.wtf

Gilla - The Video Hits Collection через торрент pb.wtf

Размер: 526 MB | Добавлен: 2 года назад | Торрент скачан:17 раз
Скачать  

13-01-2019 10:42 Gilla - The Video Hits Collection Скачать торрент  

Gilla - The Video Hits Collection / Gilla - The Video Hits Collection
Исполнитель:Gilla/Джиллa
Год выпуска: 2016
Страна: Россия
Студия:MOM RecordsHD
Жанр: Pop, Disco
Продолжительность: 00:41:02
Перевод: Оригинальный

Об исполнителе: Мало кто знает, что на месте группы "Boney'M" должна была оказаться немецкая певица Джилла (Gilla). Именно с сотрудничества с Джиллой Фариан начинал свою профессиональную продьюсерскую карьеру. Наделав массу ошибок и назвав для себя Джиллу неудачницей, Фрэнк переключил своё внимание на других исполнителей, в работе с которыми он уже не допускал прежних промахов. Но, к сожалению, карьера Джиллы была испорчена безвозвратно, и все её дальнейшие попытки заявить о себе остались безуспешными. Однако, отсутствие популярности не означает отсутствие таланта, и Джилле всё-таки удалось стать частью "диско"-культуры и внести в неё что-то своё. За что она до сих пор и интересна, хотя бы и небольшому, но определённому контингенту людей, которые не изменяют своим интересам, и для которых эпоха 70-х стала неотъемлемой частью жизни.

01. Bend Me, Shape Me
02. Help! Help!
03. Gentlemen Callers Not Allowed (feat Bobby Farrell)
04. We Gotta Get Out of This Place
05. Bend Me, Shape Me
06. Johnny (German version)
07. Hold On
08. Why Don' t You Do It
09. Go Down Mainstreet
10. Johnny
11. Tom Cat
Качество: WEBRip
Формат: AVI
Видео кодек: XviD
Аудио кодек: MP3
Видео: 704x400 (1.76:1), 23.976 fps, XviD build 65 ~1652 kbps avg, 0.24 bit/pixel
Аудио#1: 44.100 kHz, MPEG Layer 3, 2 ch, ~128.00 kbps avg
Общее
Полное имя : D:\torrent\Новая загрузка(док)\Gilla-The.Video.Hits.Collection.2016.avi
Формат : AVI
Формат/Информация : Audio Video Interleave
Размер файла : 526 Мбайт
Продолжительность : 41 м. 2 с.
Общий поток : 1790 Кбит/сек
Программа кодирования : VirtualDubMod 1.5.10.3 | www.virtualdub-fr.org || (build 2550/release)
Библиотека кодирования : VirtualDub build 35491/release

Видео
Идентификатор : 0
Формат : MPEG-4 Visual
Профиль формата : Advanced Simple@L5
Настройки формата : BVOP2 / Custom Matrix
Параметр BVOP формата : 2
Параметр QPel формата : Нет
Параметр GMC формата : Без точки перехода
Параметр матрицы формата : Выборочная
Идентификатор кодека : XVID
Идентификатор кодека/Подсказка : XviD
Продолжительность : 41 м. 2 с.
Битрейт : 1653 Кбит/сек
Ширина : 704 пикселя
Высота : 400 пикселей
Соотношение сторон : 16:9
Частота кадров : 23,976 (24000/1001) кадра/сек
Частота кадров в оригинале : 23,976 (23976/1000) кадра/сек
Цветовое пространство : YUV
Субдискретизация насыщенности : 4:2:0
Битовая глубина : 8 бит
Тип развёртки : Прогрессивная
Метод сжатия : С потерями
Бит/(Пиксели*Кадры) : 0.245
Размер потока : 485 Мбайт (92%)
Библиотека кодирования : XviD 65

Аудио
Идентификатор : 1
Формат : MPEG Audio
Версия формата : Version 1
Профиль формата : Layer 3
Настройки формата : Joint stereo / MS Stereo
Идентификатор кодека : 55
Идентификатор кодека/Подсказка : MP3
Продолжительность : 41 м. 2 с.
Вид битрейта : Постоянный
Битрейт : 128 Кбит/сек
Каналы : 2 канала
Частота : 44,1 КГц
Метод сжатия : С потерями
Задержка видео : 15 мс.
Размер потока : 37,6 Мбайт (7%)
Выравнивание : Разделение по промежуткам
Продолжительность промежутка : 42 мс. (1,00 видеокадр)
Время предзагрузки промежутка : 500 мс.
Библиотека кодирования : LAME3.99.5

pb.wtf



Скачать Gilla - The Video Hits Collection через торрент http://pic1.kartinco.top/images/12/7ik1f.jpg Скачать фильм Gilla - The Video Hits Collection [2016 г., Pop, Disco, WEBRip, Оригинальный]через торрент бесплантно в хорошем качестве Трэклист Bend Me, Shape Me Help! Help! Gentlemen Callers Not Allowed (feat Bobby Farrell) We Gotta Get Out of This Place ... 8.5 10 2
Торрент: Зарегистрирован [2019-01-13 10:42] · скачан: 17 раз
Статус: √ проверено
Размер: 526 MB
Как cкачать? Как скачать Gilla - The Video Hits Collection через торрент | UTorrent

28-11-2019 20:33  

Отключить всю рекламу на сайте

    Дорогой пользователь! Огромная просьба, поблагодарите релизера, оцените раздачу и оставьте свои комментарий, если Вы скачали Gilla - The Video Hits Collection через торрент бесплатно! Внесите свою лепту в развитие PiratBit!
    Комментировать посты могут только пользователи прошедшие не сложную регистрацию
    Показать сообщения:    

    Gilla - The Video Hits Collection через торрент
    Скачать бесплатно Gilla - The Video Hits Collection
    Gilla - The Video Hits Collection скачать торрент
    Gilla - The Video Hits Collection смотреть онлайн
    Cкачать фильм Gilla - The Video Hits Collection бесплатно
    Gilla - The Video Hits Collection скачать торрент в хорошем качестве
    Gilla - The Video Hits Collection смотреть онлайн бесплатно в хорошем качестве


    Вы не можете начинать темы
    Вы не можете отвечать на сообщения
    Вы не можете редактировать свои сообщения
    Вы не можете удалять свои сообщения
    Вы не можете голосовать в опросах
    Вы не можете прикреплять файлы к сообщениям
    Вы можете скачивать файлы