Ссылка на приватное зеркало всего за 1$. Внимание количество ограничено!!!

OK

1+1

iTunes

мы

OK

1

WEB-DLRip

Джокер

Пифагор

Ведьмак / The Witcher сериал

Лицензия

ПШазам

ОК

Оно 2

iTunes

30
pack

Вам бонус

ВАЖНО

!!Акция!!

Alien_RageХит недели

RePack

Resident Evil 21

ИГРА 18+

pack

RePack

jed

RePack

fifa19

RePack

Assassins Creed: Odyssey

RePack

NEED FOR SPEED™ PAYBACK

4 сезон

9 сезон

Бесстыжие 9 сезон

Все сериалы

все сериалы на PB.wtf

RePack

FAR CRY 5
  

Дубликат / Jonathan (Билл Оливер) [2018, Фантастика, драма, BD Remux 1080p] MVO [iTunes] pb.wtf

Дубликат через торрент pb.wtf

Размер: 17.93 GB | Добавлен: 1 год назад | Торрент скачан:55 раз
Скачать  

13-01-2019 11:13 Дубликат Скачать торрент  

Дубликат / Jonathan«Бойся лишь себя» Год выпуска: 2018
Страна: США
Жанр: Фантастика, драма
Продолжительность: 01:40:47
Перевод: Профессиональный (многоголосый, закадровый) | iTunes
Субтитры: Английские (SDH)

Режиссер: Билл Оливер

rating

В ролях:

Энсел Элгорт, Патриша Кларксон, Сьюки Уотерхаус, Мэтт Бомер, Дуглас Ходж, Джо Эгендер, Джефф Ким, Аласка Л. МакФедден, Джули Микельсон, Шунори Раманатхан

Описание:

Как многие жители Манхэттена, Джонатан просыпается ровно в 7 утра и отправляется на работу, а вечером ложится спать. Вроде бы всё, как у всех. Если бы не одно «но» - каждый день молодой человек проживает две жизни. Пока одна личность спит, вторая ведёт активную жизнь. И каждое утро Джонатану приходит видео от самого себя - о том, что он делал во второй половине дня.Но однажды происходит событие, которое приводит к необратимым последствиям.

Качество: BD Remux 1080p
Формат: MKV

Видео: MPEG-4 AVC, 1920x1080, 22.8 Mbit/s, 23.976 fps
Аудио#1: 48 kHz, AC3, 5.1, 384 Kbps | iTunes | RUS |
Аудио#2: 48 kHz, DTS-HD MA, 5.1, 2266 Kbps | Оригинал | ENG |
скриншот  скриншот  скриншот  скриншот  скриншот  

General
Unique ID : 216789387040652383541716104629815756672 (0xA3181E01A6B23CF758529D39BDE24780)
Complete name : D:Video111Jonathan.2018.BDREMUX.1080p.seleZen.mkv
Format : Matroska
Format version : Version 4
File size : 17.9 GiB
Duration : 1 h 40 min
Overall bit rate mode : Variable
Overall bit rate : 25.5 Mb/s
Movie name : Jonathan 2018 from селезень
Encoded date : UTC 2019-01-13 10:35:48
Writing application : mkvmerge v29.0.0 ('Like It Or Not') 64-bit
Writing library : libebml v1.3.6 + libmatroska v1.4.9

Video
ID : 1
Format : AVC
Format/Info : Advanced Video Codec
Format profile : High@L4.1
Format settings : CABAC / 4 Ref Frames
Format settings, CABAC : Yes
Format settings, ReFrames : 4 frames
Codec ID : V_MPEG4/ISO/AVC
Duration : 1 h 40 min
Bit rate mode : Variable
Bit rate : 22.8 Mb/s
Maximum bit rate : 30.0 Mb/s
Width : 1 920 pixels
Height : 1 080 pixels
Display aspect ratio : 16:9
Frame rate mode : Constant
Frame rate : 23.976 (24000/1001) FPS
Color space : YUV
Chroma subsampling : 4:2:0
Bit depth : 8 bits
Scan type : Progressive
Bits/(Pixel*Frame) : 0.459
Stream size : 16.1 GiB (90%)
Language : English
Default : Yes
Forced : No

Audio #1
ID : 2
Format : AC-3
Format/Info : Audio Coding 3
Commercial name : Dolby Digital
Codec ID : A_AC3
Duration : 1 h 40 min
Bit rate mode : Constant
Bit rate : 384 kb/s
Channel(s) : 6 channels
Channel layout : L R C LFE Ls Rs
Sampling rate : 48.0 kHz
Frame rate : 31.250 FPS (1536 SPF)
Bit depth : 16 bits
Compression mode : Lossy
Stream size : 277 MiB (2%)
Title : iTunes
Language : Russian
Service kind : Complete Main
Default : Yes
Forced : Yes

Audio #2
ID : 3
Format : DTS XLL
Format/Info : Digital Theater Systems
Commercial name : DTS-HD Master Audio
Codec ID : A_DTS
Duration : 1 h 40 min
Bit rate mode : Variable
Bit rate : 2 266 kb/s
Channel(s) : 6 channels
Channel layout : C L R Ls Rs LFE
Sampling rate : 48.0 kHz
Frame rate : 93.750 FPS (512 SPF)
Bit depth : 16 bits
Compression mode : Lossless
Stream size : 1.60 GiB (9%)
Title : Original
Language : English
Default : No
Forced : No

Text
ID : 4
Format : UTF-8
Codec ID : S_TEXT/UTF8
Codec ID/Info : UTF-8 Plain Text
Duration : 1 h 34 min
Bit rate : 38 b/s
Count of elements : 931
Stream size : 26.4 KiB (0%)
Title : Full
Language : English
Default : No
Forced : No

Menu
00:00:00.000 : en:00:00:00.000
00:06:53.663 : en:00:06:53.663
00:13:04.325 : en:00:13:04.325
00:20:40.322 : en:00:20:40.322
00:27:33.235 : en:00:27:33.235
00:34:05.335 : en:00:34:05.335
00:43:37.198 : en:00:43:37.198
00:53:06.850 : en:00:53:06.850
01:02:43.593 : en:01:02:43.593
01:11:23.738 : en:01:11:23.738
01:23:01.894 : en:01:23:01.894
01:35:42.362 : en:01:35:42.362

pb.wtf



Скачать Дубликат через торрент http://img15.lostpic.net/2019/01/07/85a1fd591d2476e0e5f3e7d24f91254b.jpg Скачать фильм Дубликат через торрент бесплантно в хорошем качестве Описание: Как многие жители Манхэттена, Джонатан просыпается ровно в 7 утра и отправляется на работу, а вечером ложится спать. Вроде бы ... 10 10 3
Торрент: Зарегистрирован [2019-01-13 11:13] · скачан: 55 раз
Статус: √ проверено
Размер: 17.93 GB
Как cкачать? Как скачать Дубликат через торрент | qTorrent

% Раздел Тема Автор DL S | L
Фильмы 2018 [DVDrip, WEB-DLRip, HDrip] (DUB, MVO) [ 1.42 GB ] Дубликат / Jonathan [2018 BDRip] MVO Twi7ter Скачать
1 | 0
Фильмы 2018 [DVDrip, WEB-DLRip, HDrip] (DUB, MVO) [ 1.41 GB ] Дубликат / Jonathan [2018 BDRip] MVO bober100 Скачать
1 | 0
Фильмы 2018 [DVDrip, WEB-DLRip, HDrip] (DUB, MVO) [ 705 MB ] Дубликат / Jonathan [2018 WEB-DLRip многоголосый закадровый ""] coc900 Скачать
2 | 0
Фильмы 2018 [DVDrip, WEB-DLRip, HDrip] (DUB, MVO) [ 1.8 GB ] Дубликат / Jonathan [2018 WEB-DLRip-AVC] MVO bober100 Скачать
2 | 0

28-11-2019 20:33  

Отключить всю рекламу на сайте

    Дорогой пользователь! Огромная просьба, поблагодарите релизера, оцените раздачу и оставьте свои комментарий, если Вы скачали Дубликат через торрент бесплатно! Внесите свою лепту в развитие PiratBit!
    Комментировать посты могут только пользователи прошедшие не сложную регистрацию
    Показать сообщения:    

    Дубликат через торрент
    Скачать бесплатно Дубликат
    Дубликат скачать торрент
    Дубликат смотреть онлайн
    Cкачать фильм Дубликат бесплатно
    Дубликат скачать торрент в хорошем качестве
    Дубликат смотреть онлайн бесплатно в хорошем качестве


    Вы не можете начинать темы
    Вы не можете отвечать на сообщения
    Вы не можете редактировать свои сообщения
    Вы не можете удалять свои сообщения
    Вы не можете голосовать в опросах
    Вы не можете прикреплять файлы к сообщениям
    Вы можете скачивать файлы