2 сезон

iTunes

MVO

1

2 сезон

iTunes

iTunes

1 сезон

RePack

30

Новинка

ВАЖНО

ИГРА 18+

pack

RePack

MK11
pack

Легкие деньги

RePack

jed

RePack

fifa19

RePack

RDR2

RePack

NEED FOR SPEED™ PAYBACK

4 сезон

9 сезон

Бесстыжие 9 сезон

Все сериалы

все сериалы на PB.wtf

RePack

FAR CRY 5

Anonymous, доброе утро, мы не успеваем собрать деньги на оплату серверов за декабрь и январь, помогите нам пожалуйста в это трудное время. В качестве благодарности мы отключим Вам всю рекламу на сайте (укажите свой ник в строку Ваше имя)!

×
  
Magnet ссылка

Donna Summer - The Video Hits Collection / Donna Summer - The Video Hits Collection [2016 г., Диско-рок, дэнс, WEBRip, Оригинальный] pb.wtf

Donna Summer - The Video Hits Collection через торрент pb.wtf

Размер: 1.01 GB | Добавлен: 2 года назад | Торрент скачан:13 раз
Скачать  

13-01-2019 13:23 Donna Summer - The Video Hits Collection Скачать торрент  

Donna Summer - The Video Hits Collection / Donna Summer - The Video Hits Collection
Исполнитель:Donna Summer/ Донна Саммер
Год выпуска: 2016
Страна: Россия Студия: MOM RecordsHD
Жанр: Диско-рок, дэнс
Продолжительность: 01:21:25
Перевод: Оригинальный

Об исполнителе: Королевами не рождаются – ими становятся. Возможно, эта мысль прозвучала бы кощунственно в отношении какой-нибудь монархической династии. Но в мире музыки именно так все и происходит. Только голос от Бога, работа «до седьмого пота» и умение заинтересовать собой может заставить капризную Фортуну одарить тебя улыбкой и громким званием – Королевы диско или «Никогда не сдавайся»! За свою долгую и плодотворную творческую жизнь Донна Саммер завоевала 5 наград Grammy, 6 премий American Music Awards, продала свыше 130 млн. дисков, а три ее альбома стали мульти-платиновыми. Сегодня, с ностальгией слушая ее мелодичный голос на фоне пульсирующих ритмов, мы понимаем – да, эпоха диско осталась позади, но песни, которые дарила Донна Саммер, и сейчас наполняют душу светом, энергией и теплом.

01. I Feel Love
02. Love To Love You Baby
03. Lady of The Night
04. She Works Hard For The Money
05. Supernatural Love
06. Try Me
07. Could It Be Magic
08. Spring Affair
09. Hot Stuff
10. The Woman in Me
11. Sunset People
12. The Wanderer
13. The Hostage
14. Dinner With Gershwin
15. Love Is in Control
16. All Systems Go
17. This Time I Know It' s For Real
18. Love' s About To Change My Heart
19. On The Radio
20. Last Dance
21. Medley
Качество: WEBRip
Формат: AVI
Видео кодек: XviD
Аудио кодек: MP3
Видео: 704x400 (1.76:1), 23.976 fps, XviD build 65 ~1642 kbps avg, 0.24 bit/pixel
Аудио#1: 44.100 kHz, MPEG Layer 3, 2 ch, ~128.00 kbps avg
Общее
Полное имя : D:\torrent\Новая загрузка(док)\Donna.Summr-The.Video.Hits.Collection.2016.avi
Формат : AVI
Формат/Информация : Audio Video Interleave
Размер файла : 1,01 Гбайт
Продолжительность : 1 ч. 21 м.
Общий поток : 1780 Кбит/сек
Программа кодирования : VirtualDubMod 1.5.10.3 | www.virtualdub-fr.org || (build 2550/release)
Библиотека кодирования : VirtualDub build 35491/release

Видео
Идентификатор : 0
Формат : MPEG-4 Visual
Профиль формата : Advanced Simple@L5
Настройки формата : BVOP2 / Custom Matrix
Параметр BVOP формата : 2
Параметр QPel формата : Нет
Параметр GMC формата : Без точки перехода
Параметр матрицы формата : Выборочная
Идентификатор кодека : XVID
Идентификатор кодека/Подсказка : XviD
Продолжительность : 1 ч. 21 м.
Битрейт : 1642 Кбит/сек
Ширина : 704 пикселя
Высота : 400 пикселей
Соотношение сторон : 16:9
Частота кадров : 23,976 (24000/1001) кадра/сек
Частота кадров в оригинале : 23,976 (23976/1000) кадра/сек
Цветовое пространство : YUV
Субдискретизация насыщенности : 4:2:0
Битовая глубина : 8 бит
Тип развёртки : Прогрессивная
Метод сжатия : С потерями
Бит/(Пиксели*Кадры) : 0.243
Размер потока : 956 Мбайт (92%)
Библиотека кодирования : XviD 65

Аудио
Идентификатор : 1
Формат : MPEG Audio
Версия формата : Version 1
Профиль формата : Layer 3
Идентификатор кодека : 55
Идентификатор кодека/Подсказка : MP3
Продолжительность : 1 ч. 21 м.
Вид битрейта : Постоянный
Битрейт : 128 Кбит/сек
Каналы : 2 канала
Частота : 44,1 КГц
Метод сжатия : С потерями
Размер потока : 74,5 Мбайт (7%)
Выравнивание : Разделение по промежуткам
Продолжительность промежутка : 42 мс. (1,00 видеокадр)
Время предзагрузки промежутка : 500 мс.

pb.wtf



Скачать Donna Summer - The Video Hits Collection через торрент http://pic1.kartinco.top/images/12/2whd1.jpg Скачать фильм Donna Summer - The Video Hits Collection через торрент бесплантно в хорошем качестве Трэклист I Feel Love Love To Love You Baby Lady of The Night She Works Hard For The Money Supernatural Love Try Me ... 9.5 10 4
Info! Серебряная раздача, засчитывается только 50% скачанного.
Торрент: Зарегистрирован [2019-01-13 13:23] · скачан: 13 раз
Статус: √ проверено
Размер: 1.01 GB
Как cкачать? Как скачать Donna Summer - The Video Hits Collection через торрент | UTorrent

28-11-2019 20:33  

Отключить всю рекламу на сайте

    Дорогой пользователь! Огромная просьба, поблагодарите релизера, оцените раздачу и оставьте свои комментарий, если Вы скачали Donna Summer - The Video Hits Collection через торрент бесплатно! Внесите свою лепту в развитие PiratBit!
    Комментировать посты могут только пользователи прошедшие не сложную регистрацию
    Показать сообщения:    

    Donna Summer - The Video Hits Collection через торрент
    Скачать бесплатно Donna Summer - The Video Hits Collection
    Donna Summer - The Video Hits Collection скачать торрент
    Donna Summer - The Video Hits Collection смотреть онлайн
    Cкачать фильм Donna Summer - The Video Hits Collection бесплатно
    Donna Summer - The Video Hits Collection скачать торрент в хорошем качестве
    Donna Summer - The Video Hits Collection смотреть онлайн бесплатно в хорошем качестве


    Вы не можете начинать темы
    Вы не можете отвечать на сообщения
    Вы не можете редактировать свои сообщения
    Вы не можете удалять свои сообщения
    Вы не можете голосовать в опросах
    Вы не можете прикреплять файлы к сообщениям
    Вы можете скачивать файлы