Ссылка на приватное зеркало нашего сайта всего за 1$. Внимание количество ограничено!!!

2 сезон

iTunes

1 сезон

1

2 сезон

2 сезон

iTunes

1 сезон

RePack

30

Ultimate

ВАЖНО

ИГРА 18+

pack

RePack

MK11
pack

Забери бонус

RePack

jed

!!Акция!!

Alien_Rage

RePack

fifa19

RePack

Assassins Creed: Odyssey

RePack

NEED FOR SPEED™ PAYBACK

4 сезон

9 сезон

Бесстыжие 9 сезон

Все сериалы

все сериалы на PB.wtf

RePack

FAR CRY 5
  

Морские Котики / Seal Team / Сезон: 1 / Серия: 1-22 из 22 (Кристофер Чулак, Ларри Тенг, Иэн Тойнтон) [2017-2018, боевик, драма, криминал, WEBRip 720p] [MVO] (Good People) pb.wtf

Морские Котики через торрент pb.wtf

Размер: 49.99 GB | Добавлен: 1 год 10 мес. назад | Торрент скачан:5 раз
Скачать  

13-01-2019 16:08 Морские Котики Скачать торрент  

Морские Котики / Seal Team
Год выпуска: 2017-2018
Страна: США
Жанр: боевик, драма, криминал
Продолжительность: 22 x ~ 00:44:00
Перевод: Профессиональный (многоголосый закадровый) Студия Good People
Субтитры: English

Режиссёр: Кристофер Чулак, Ларри Тенг, Иэн Тойнтон

В ролях: Дэвид Бореаназ, Александра ЛеМосл, Макс Тириот, Тони Тракс, Джессика Паре и другие.

Описание: Они - лучшие в своем деле. Работают как на суше, так и на море. Каждый раз на их долю выпадают самые опасные миссии, которые по-настоящему способны проверить их способности и навыки. Главные герои выполняют поисковые задания, спасательные операции, военно-стрелковые задачи по устранению террористов и спасению заложников. Морские котики - это вершина мастерства военного дела. Эти люди, к тому же, в ходе одной из операций взяли под стражу самого разыскиваемого террориста мира. Речь идет о знаменитом на всю планету Саддаме Хуссейне. Однако не только охота на террористов является заботой главных героев. Даже после такого уверенного триумфа им предстоит много работать над собой, чтобы держать себя в форме и продолжать обеспечивать безопасность всем тем, кто в ней нуждается. Государственная неприкосновенность - это их главная работа! А мы за ней будем следить!

rating

Качество: WEBRip 720p
Формат: MKV
Видео кодек: AVC
Аудио кодек: AC3, E-AC3
Видео: H264, 1280x720 (16:9), 23.976 fps, ~5800kbps, 0.267 bit/pixel
Аудио 1: Dolby AC3 48000Hz 5.1 640Kbps Русский
Аудио 2: Dolby E-AC3 48000Hz 5.1 640Kbps Оригинал (Английский)
General
Unique ID : 227047566093152686196611479549613023068 (0xAACFC548437813568A93FC5737699F5C)
Complete name : Seal.Team.S01E01.Tip.of.the.Spear.720p.AMZN.WEBRip.DDP5.1.x264-GoodPeople.mkv
Format : Matroska
Format version : Version 2
File size : 2.24 GiB
Duration : 43mn 48s
Overall bit rate : 7 321 Kbps
Encoded date : UTC 2017-10-06 19:12:48
Writing application : mkvmerge v5.4.0 ('Piper') built on Mar 10 2012 13:34:39
Writing library : libebml v1.2.3 + libmatroska v1.3.0
DURATION : 00:43:01.011000000
NUMBER_OF_FRAMES : 802
NUMBER_OF_BYTES : 25879
_STATISTICS_WRITING_APP : mkvmerge v10.0.0 ('To Drown In You') 64bit
_STATISTICS_WRITING_DATE_UT : 2017-09-29 14:12:37
_STATISTICS_TAGS : BPS DURATION NUMBER_OF_FRAMES NUMBER_OF_BYTES

Video
ID : 1
Format : AVC
Format/Info : Advanced Video Codec
Format profile : High@L4.1
Format settings, CABAC : Yes
Format settings, ReFrames : 9 frames
Codec ID : V_MPEG4/ISO/AVC
Duration : 43mn 48s
Bit rate : 5 895 Kbps
Width : 1 280 pixels
Height : 720 pixels
Display aspect ratio : 16:9
Frame rate mode : Constant
Frame rate : 23.976 fps
Color space : YUV
Chroma subsampling : 4:2:0
Bit depth : 8 bits
Scan type : Progressive
Bits/(Pixel*Frame) : 0.267
Stream size : 1.80 GiB (81%)
Writing library : x264 core 148 r2638 7599210
Encoding settings : cabac=1 / ref=9 / deblock=1:-3:-3 / analyse=0x3:0x133 / me=umh / subme=10 / psy=1 / psy_rd=1.00:0.00 / mixed_ref=1 / me_range=48 / chroma_me=1 / trellis=2 / 8x8dct=1 / cqm=0 / deadzone=21,11 / fast_pskip=0 / chroma_qp_offset=-2 / threads=12 / lookahead_threads=2 / sliced_threads=0 / nr=0 / decimate=0 / interlaced=0 / bluray_compat=0 / constrained_intra=0 / bframes=9 / b_pyramid=0 / b_adapt=2 / b_bias=0 / direct=3 / weightb=1 / open_gop=0 / weightp=2 / keyint=240 / keyint_min=23 / scenecut=40 / intra_refresh=0 / rc=crf / mbtree=0 / crf=17.0 / qcomp=0.60 / qpmin=10 / qpmax=51 / qpstep=4 / ip_ratio=1.40 / pb_ratio=1.30 / aq=3:0.70
Default : Yes
Forced : No

Audio #1
ID : 2
Format : AC-3
Format/Info : Audio Coding 3
Mode extension : CM (complete main)
Format settings, Endianness : Big
Codec ID : A_AC3
Duration : 43mn 48s
Bit rate mode : Constant
Bit rate : 640 Kbps
Channel(s) : 6 channels
Channel positions : Front: L C R, Side: L R, LFE
Sampling rate : 48.0 KHz
Compression mode : Lossy
Stream size : 201 MiB (9%)
Language : Russian
Default : Yes
Forced : No

Audio #2
ID : 3
Format : E-AC-3
Format/Info : Audio Coding 3
Format settings, Endianness : Big
Codec ID : A_EAC3
Duration : 43mn 48s
Bit rate mode : Constant
Bit rate : 640 Kbps
Channel(s) : 6 channels
Channel positions : Front: L C R, Side: L R, LFE
Sampling rate : 48.0 KHz
Compression mode : Lossy
Stream size : 201 MiB (9%)
Language : English
Default : No
Forced : No

Text
ID : 4
Format : UTF-8
Codec ID : S_TEXT/UTF8
Codec ID/Info : UTF-8 Plain Text
Language : English
Default : No
Forced : No
скриншот  скриншот  скриншот  
pb.wtf



Скачать Морские Котики через торрент http://i89.fastpic.ru/big/2017/1006/19/5a82af5d4a6af3ff7555eab41a3f5c19.png Скачать фильм Морские Котики через торрент бесплантно в хорошем качестве Описание: Они - лучшие в своем деле. Работают как на суше, так и на море. Каждый раз на их долю выпадают самые опасные миссии, которые ... 10 10 1
Торрент: Зарегистрирован [2019-01-13 16:08] · скачан: 5 раз
Статус: √ проверено
Размер: 49.99 GB
Как cкачать? Как скачать Морские Котики через торрент | qTorrent

% Раздел Тема Автор DL S | L
Зарубежные сериалы [ 11.82 GB ] Морские Котики / Seal Team / Сезон: 1 / Серия: 1-22 из 22 [2017-2018 WEBRip] [MVO] killermax2013 Скачать
1 | 0
Зарубежные сериалы [ 11.82 GB ] Спецназ / Морские котики / SEAL Team / Сезон: 1 / Серии: 1-22 из 22 [2017 WEB-DLRip] MVO [NewStudio] bober100 Скачать
1 | 0

28-11-2019 20:33  

Отключить всю рекламу на сайте

    Дорогой пользователь! Огромная просьба, поблагодарите релизера, оцените раздачу и оставьте свои комментарий, если Вы скачали Морские Котики через торрент бесплатно! Внесите свою лепту в развитие PiratBit!
    Комментировать посты могут только пользователи прошедшие не сложную регистрацию
    Показать сообщения:    

    Морские Котики через торрент
    Скачать бесплатно Морские Котики
    Морские Котики скачать торрент
    Морские Котики смотреть онлайн
    Cкачать фильм Морские Котики бесплатно
    Морские Котики скачать торрент в хорошем качестве
    Морские Котики смотреть онлайн бесплатно в хорошем качестве


    Вы не можете начинать темы
    Вы не можете отвечать на сообщения
    Вы не можете редактировать свои сообщения
    Вы не можете удалять свои сообщения
    Вы не можете голосовать в опросах
    Вы не можете прикреплять файлы к сообщениям
    Вы можете скачивать файлы