Ссылка на приватное зеркало нашего сайта всего за 1$. Внимание количество ограничено!!!

2 сезон

iTunes

1 сезон

1

2 сезон

2 сезон

iTunes

1 сезон

RePack

30

Ultimate

ВАЖНО

ИГРА 18+

pack

RePack

MK11
pack

Забери бонус

RePack

jed

!!Акция!!

Alien_Rage

RePack

fifa19

RePack

Assassins Creed: Odyssey

RePack

NEED FOR SPEED™ PAYBACK

4 сезон

9 сезон

Бесстыжие 9 сезон

Все сериалы

все сериалы на PB.wtf

RePack

FAR CRY 5
  

Морские Котики / Seal Team / Сезон: 1 / Серия: 1-22 из 22 (Кристофер Чулак, Ларри Тенг, Иэн Тойнтон) [2017-2018, боевик, драма, криминал, WEBRip] [MVO] (Good People) pb.wtf

Морские Котики через торрент pb.wtf

Размер: 11.82 GB | Добавлен: 1 год 10 мес. назад | Торрент скачан:34 раза
Скачать  

13-01-2019 16:13 Морские Котики Скачать торрент  

Морские Котики / Seal Team Год выпуска: 2017-2018
Страна: США
Жанр: боевик, драма, криминал
Продолжительность: 22 x ~ 00:44:00
Перевод: Профессиональный (многоголосый закадровый) Студия Good People

Режиссёр: Кристофер Чулак, Ларри Тенг, Иэн Тойнтон

В ролях: Дэвид Бореаназ, Александра ЛеМосл, Макс Тириот, Тони Тракс, Джессика Паре и другие.

Описание: Они - лучшие в своем деле. Работают как на суше, так и на море. Каждый раз на их долю выпадают самые опасные миссии, которые по-настоящему способны проверить их способности и навыки. Главные герои выполняют поисковые задания, спасательные операции, военно-стрелковые задачи по устранению террористов и спасению заложников. Морские котики - это вершина мастерства военного дела. Эти люди, к тому же, в ходе одной из операций взяли под стражу самого разыскиваемого террориста мира. Речь идет о знаменитом на всю планету Саддаме Хуссейне. Однако не только охота на террористов является заботой главных героев. Даже после такого уверенного триумфа им предстоит много работать над собой, чтобы держать себя в форме и продолжать обеспечивать безопасность всем тем, кто в ней нуждается. Государственная неприкосновенность - это их главная работа! А мы за ней будем следить!

rating

Качество: WEBRip
Формат: AVI
Видео кодек: XvID
Аудио кодек: MP3
Видео: XviD, ~ 1400 kbps, 720x400 (16:9), 23.976 fps
Аудио 1: MP3, 48,0 КГц, 2 ch, 128 kbps Русский
Аудио 2: MP3, 48,0 КГц, 2 ch, 128 kbps Оригинал (Английский)
Общее
Полное имя : F:\GoodPeople\Seal Team. Season 1 (WEBRip l 400p l Good People)\Seal.Team.S01E01.WEBRip.Rus.Eng.GoodPeople.avi
Формат : AVI
Формат/Информация : Audio Video Interleave
Размер файла : 550 Мбайт
Продолжительность : 43 м. 48 с.
Общий поток : 1757 Кбит/сек
Программа кодирования : VirtualDubMod 1.5.10.3 | www.virtualdub-fr.org || (build 2550/release)
Библиотека кодирования : VirtualDubMod build 2550/release

Видео
Идентификатор : 0
Формат : MPEG-4 Visual
Профиль формата : Advanced Simple@L5
Параметр BVOP формата : 1
Параметр QPel формата : Нет
Параметр GMC формата : Без точки перехода
Параметр матрицы формата : Default (MPEG)
Идентификатор кодека : XVID
Идентификатор кодека/Подсказка : XviD
Продолжительность : 43 м. 48 с.
Битрейт : 1487 Кбит/сек
Ширина : 720 пикселей
Высота : 400 пикселей
Соотношение сторон : 16:9
Частота кадров : 23,976 (24000/1001) кадра/сек
Цветовое пространство : YUV
Субдискретизация насыщенности : 4:2:0
Битовая глубина : 8 бит
Тип развёртки : Прогрессивная
Метод сжатия : С потерями
Бит/(Пиксели*Кадры) : 0.215
Размер потока : 466 Мбайт (85%)
Библиотека кодирования : XviD 73

Аудио #1
Идентификатор : 1
Формат : MPEG Audio
Версия формата : Version 1
Профиль формата : Layer 3
Режим : Joint stereo
Расширение режима : MS Stereo
Идентификатор кодека : 55
Идентификатор кодека/Подсказка : MP3
Продолжительность : 43 м. 48 с.
Вид битрейта : Постоянный
Битрейт : 128 Кбит/сек
Каналы : 2 канала
Частота : 48,0 КГц
Метод сжатия : С потерями
Размер потока : 40,1 Мбайт (7%)
Выравнивание : Соединение по промежуткам
Продолжительность промежутка : 42 мс. (1,00 видеокадр)
Время предзагрузки промежутка : 504 мс.

Аудио #2
Идентификатор : 2
Формат : MPEG Audio
Версия формата : Version 1
Профиль формата : Layer 3
Режим : Joint stereo
Расширение режима : MS Stereo
Идентификатор кодека : 55
Идентификатор кодека/Подсказка : MP3
Продолжительность : 43 м. 48 с.
Вид битрейта : Постоянный
Битрейт : 128 Кбит/сек
Каналы : 2 канала
Частота : 48,0 КГц
Метод сжатия : С потерями
Размер потока : 40,1 Мбайт (7%)
Выравнивание : Соединение по промежуткам
Продолжительность промежутка : 42 мс. (1,00 видеокадр)
Время предзагрузки промежутка : 504 мс.
скриншот  скриншот  скриншот  
pb.wtf



Скачать Морские Котики через торрент http://i89.fastpic.ru/big/2017/1006/19/5a82af5d4a6af3ff7555eab41a3f5c19.png Скачать фильм Морские Котики через торрент бесплантно в хорошем качестве Описание: Они - лучшие в своем деле. Работают как на суше, так и на море. Каждый раз на их долю выпадают самые опасные миссии, которые ... 1 10 1
Торрент: Зарегистрирован [2019-01-13 16:13] · скачан: 34 раз
Статус: √ проверено
Размер: 11.82 GB
Как cкачать? Как скачать Морские Котики через торрент | qTorrent

% Раздел Тема Автор DL S | L
Зарубежные сериалы [ 49.99 GB ] Морские Котики / Seal Team / Сезон: 1 / Серия: 1-22 из 22 [2017-2018 WEBRip 720p] [MVO] killermax2013 Скачать
1 | 0
Зарубежные сериалы [ 11.82 GB ] Спецназ / Морские котики / SEAL Team / Сезон: 1 / Серии: 1-22 из 22 [2017 WEB-DLRip] MVO [NewStudio] bober100 Скачать
1 | 0

28-11-2019 20:33  

Отключить всю рекламу на сайте

    Дорогой пользователь! Огромная просьба, поблагодарите релизера, оцените раздачу и оставьте свои комментарий, если Вы скачали Морские Котики через торрент бесплатно! Внесите свою лепту в развитие PiratBit!
    Комментировать посты могут только пользователи прошедшие не сложную регистрацию
    Показать сообщения:    

    Морские Котики через торрент
    Скачать бесплатно Морские Котики
    Морские Котики скачать торрент
    Морские Котики смотреть онлайн
    Cкачать фильм Морские Котики бесплатно
    Морские Котики скачать торрент в хорошем качестве
    Морские Котики смотреть онлайн бесплатно в хорошем качестве


    Вы не можете начинать темы
    Вы не можете отвечать на сообщения
    Вы не можете редактировать свои сообщения
    Вы не можете удалять свои сообщения
    Вы не можете голосовать в опросах
    Вы не можете прикреплять файлы к сообщениям
    Вы можете скачивать файлы