Ссылка на приватное зеркало нашего сайта всего за 1$. Внимание количество ограничено!!!

2 сезон

iTunes

1 сезон

1

2 сезон

2 сезон

iTunes

1 сезон

RePack

30

Новинка

ВАЖНО

ИГРА 18+

pack

RePack

MK11
pack

Забери бонус

RePack

jed

!!Акция!!

Alien_Rage

RePack

fifa19

RePack

Assassins Creed: Odyssey

RePack

NEED FOR SPEED™ PAYBACK

4 сезон

9 сезон

Бесстыжие 9 сезон

Все сериалы

все сериалы на PB.wtf

RePack

FAR CRY 5
  

Криптон / Krypton / Сезон: 1 / Серии: 01-10 из 10 (Киаран Доннелли) [2018, Фантастика, боевик, драма, приключения, WEBRip 720p] [MVO] (Good People) pb.wtf

Криптон через торрент pb.wtf

Размер: 11.01 GB | Добавлен: 1 год 10 мес. назад | Торрент скачан:38 раз
Скачать  

13-01-2019 16:22 Криптон Скачать торрент  

Криптон / Krypton Год выпуска: 2018
Страна: США
Жанр: Фантастика, драма, приключения
Продолжительность: ~ 00:45:00
Перевод: Профессиональный (многоголосый закадровый) Good People
Субтитры: английские

Режиссёр: Киаран Доннелли

В ролях: Камерон Каффе, Джорджина Кэмпбелл, Йен МакЭлхинни, Эллиот Кауэн, Энн Огбомо, Расмус Хардайкер, Уоллис Дэй, Аарон Пьер, Гордон Александр и другие

Описание: В центре фантастического сериала - события, происходившие на родной планете мальчика с необычными способностями, который стал Суперменом. Действие разворачивается за несколько десятилетий до гибели планеты. Дед Супермена, всю жизнь веривший в равенство всех жителей планеты Криптон, решает вести непримиримую борьбу с беспорядками и очистить славное имя Элов...



Качество: WEBRip 720p
Формат: MKV
Видео кодек: AVC
Аудио кодек: AC3, E-AC3
Видео: AVC, 1280x720 (16:9), 23.976 fps, ~2404kbps, 0.106 bit/pixel
Аудио 1: Dolby AC3 48000Hz 6ch 640 Kbps Русский
Аудио 2: Dolby E-AC3 48000Hz 6ch 640 Kbps Оригинал
General
Unique ID : 206149855735753779733843138503683741262 (0x9B17049CE90318E1B7A5E265A3BA164E)
Complete name : Krypton.S01E01.Pilot.720p.AMZN.WEB-DL.DD+5.1.H264-GoodPeople.mkv
Format : Matroska
Format version : Version 4
File size : 1.09 GiB
Duration : 43 min 6 s
Overall bit rate mode : Variable
Overall bit rate : 3 631 kb/s
Encoded date : UTC 2019-01-12 03:45:47
Writing application : mkvmerge v17.0.0 ('Be Ur Friend') 64-bit
Writing library : libebml v1.3.5 + libmatroska v1.4.8

Video
ID : 1
Format : AVC
Format/Info : Advanced Video Codec
Format profile : High@L3.1
Format settings : CABAC / 5 Ref Frames
Format settings, CABAC : Yes
Format settings, ReFrames : 5 frames
Codec ID : V_MPEG4/ISO/AVC
Duration : 43 min 6 s
Bit rate mode : Variable
Bit rate : 2 349 kb/s
Maximum bit rate : 4 500 kb/s
Width : 1 280 pixels
Height : 720 pixels
Display aspect ratio : 16:9
Frame rate mode : Constant
Frame rate : 23.976 (24000/1001) FPS
Color space : YUV
Chroma subsampling : 4:2:0
Bit depth : 8 bits
Scan type : Progressive
Bits/(Pixel*Frame) : 0.106
Stream size : 724 MiB (65%)
Default : Yes
Forced : No
Color range : Limited
Color primaries : BT.709
Transfer characteristics : BT.709
Matrix coefficients : BT.709

Audio #1
ID : 2
Format : AC-3
Format/Info : Audio Coding 3
Commercial name : Dolby Digital
Codec ID : A_AC3
Duration : 43 min 6 s
Bit rate mode : Constant
Bit rate : 640 kb/s
Channel(s) : 6 channels
Channel layout : L R C LFE Ls Rs
Sampling rate : 48.0 kHz
Frame rate : 31.250 FPS (1536 SPF)
Bit depth : 16 bits
Compression mode : Lossy
Stream size : 197 MiB (18%)
Language : Russian
Service kind : Complete Main
Default : Yes
Forced : No

Audio #2
ID : 3
Format : E-AC-3
Format/Info : Enhanced AC-3
Commercial name : Dolby Digital Plus
Codec ID : A_EAC3
Duration : 43 min 6 s
Bit rate mode : Constant
Bit rate : 640 kb/s
Channel(s) : 6 channels
Channel layout : L R C LFE Ls Rs
Sampling rate : 48.0 kHz
Frame rate : 31.250 FPS (1536 SPF)
Compression mode : Lossy
Stream size : 197 MiB (18%)
Language : English
Service kind : Complete Main
Default : No
Forced : No

Text
ID : 4
Format : UTF-8
Codec ID : S_TEXT/UTF8
Codec ID/Info : UTF-8 Plain Text
Duration : 42 min 51 s
Bit rate : 66 b/s
Count of elements : 810
Stream size : 20.8 KiB (0%)
Title : English
Language : English
Default : No
Forced : No
скриншот  скриншот  скриншот  
pb.wtf



Скачать Криптон через торрент https://i109.fastpic.ru/big/2019/0113/6e/60e172b79f7e1d71ad799d22db8fdd6e.jpg Скачать фильм Криптон через торрент бесплантно в хорошем качестве Описание: В центре фантастического сериала - события, происходившие на родной планете мальчика с необычными способностями, который стал ... 5 10 1
Торрент: Зарегистрирован [2019-01-13 16:22] · скачан: 38 раз
Статус: √ проверено
Размер: 11.01 GB
Как cкачать? Как скачать Криптон через торрент | qTorrent

% Раздел Тема Автор DL S | L
Зарубежные сериалы [ 6.06 GB ] Криптон / Krypton / Сезон: 2 / Серии: 1-10 из 10 [2019 WEB-DLRip] DUB [Novamedia] bober100 Скачать
1 | 0
Зарубежные сериалы [ 28.05 GB ] Криптон / Krypton / Сезон: 2 / Серии: 1-10 из 10 [2019 WEB-DL 1080p] DUB [Novamedia] +MVO [Good People] bober100 Скачать
1 | 0
Зарубежные сериалы [ 26.9 GB ] Криптон / Krypton / Сезон: 2 / Серии: 1-10 из 10 [2019 WEB-DL 1080p] MVO [Lostfilm] bober100 Скачать
1 | 0
Зарубежные сериалы [ 6.06 GB ] Криптон / Krypton / Сезон: 2 / Серии: 1-10 из 10 [2019 WEB-DLRip] [MVO] killermax2013 Скачать
1 | 0
Зарубежные сериалы [ 7.26 GB ] Криптон / Krypton / Сезон: 2 / Серии: 1-10 из 10 [2019 WEBRip] MVO [TVShows] bober100 Скачать
1 | 0
Зарубежные сериалы [ 12.71 GB ] Криптон / Krypton / Сезон: 2 / Серии: 1-10 из 10 [2019 WEB-DL 720p] MVO [Lostfilm] bober100 Скачать
1 | 0
Зарубежные сериалы [ 28.06 GB ] Криптон / Krypton / Сезон: 2 / Серии: 1-10 из 10 [2019 WEB-DL 1080p] MVO [TVShows] bober100 Скачать
1 | 0

28-11-2019 20:33  

Отключить всю рекламу на сайте

    Дорогой пользователь! Огромная просьба, поблагодарите релизера, оцените раздачу и оставьте свои комментарий, если Вы скачали Криптон через торрент бесплатно! Внесите свою лепту в развитие PiratBit!
    Комментировать посты могут только пользователи прошедшие не сложную регистрацию
    Показать сообщения:    

    Криптон через торрент
    Скачать бесплатно Криптон
    Криптон скачать торрент
    Криптон смотреть онлайн
    Cкачать фильм Криптон бесплатно
    Криптон скачать торрент в хорошем качестве
    Криптон смотреть онлайн бесплатно в хорошем качестве


    Вы не можете начинать темы
    Вы не можете отвечать на сообщения
    Вы не можете редактировать свои сообщения
    Вы не можете удалять свои сообщения
    Вы не можете голосовать в опросах
    Вы не можете прикреплять файлы к сообщениям
    Вы можете скачивать файлы