Ссылка на приватное зеркало нашего сайта всего за 1$. Внимание количество ограничено!!!

2 сезон

iTunes

1 сезон

1

2 сезон

2 сезон

iTunes

1 сезон

RePack

30

Ultimate

ВАЖНО

ИГРА 18+

pack

RePack

MK11
pack

Забери бонус

RePack

jed

!!Акция!!

Alien_Rage

RePack

fifa19

RePack

Assassins Creed: Odyssey

RePack

NEED FOR SPEED™ PAYBACK

4 сезон

9 сезон

Бесстыжие 9 сезон

Все сериалы

все сериалы на PB.wtf

RePack

FAR CRY 5
  

Болото / Rojst / Сезон: 1 / Серии: 1-5 из 5 (Jan Holoubek) [2018, Криминал, Драма, WEB-DL 1080p] [Sub Rus] pb.wtf

Болото через торрент pb.wtf

Размер: 14.3 GB | Добавлен: 1 год 10 мес. назад | Торрент скачан:22 раза
Скачать  

13-01-2019 19:13 Болото Скачать торрент  

Болото / Rojst Год выпуска: 2018
Страна: Польша
Жанр: Криминал, Драма
Продолжительность: ~00:49:00
Перевод: Русские субтитры

Режиссёр: Jan Holoubek

В ролях: Анджей Северин, Давид Огродник, София Вихлач, Магдалена Валач, Петр Фрончевский, Ирениуш Чоп и другие

Описание: Действие сериала происходит в вымышленном провинциальном городке на западе Польши. 1984 год, военное положение из за протестов уже отменено, но процессы повлекшие за собой крах коммунистического строя еще не начались. В лесу недалеко от жилого района в Грентах происходит убийство, убита проститутка и товарищ Гроховяк, местный представитель коммунистической партии. Двум журналистам из "Вечернего Курьера" поручают написать про это статью.

rating

Качество: WEB-DL 1080p
Контейнер: MKV
Видео: V_MPEG4/ISO/AVC, 1920x800, 2.40:1, 29.970 fps, 7621 Kbps
Аудио: A_AC3, 48.0 KHz, 2ch, 384 Kbps
Субтитры: English [eng] (subrip), Russian [rus] (subrip) [default]
General
Unique ID : 306331080566117491414643768149340502126 (0xE67538583417F03067954048C8BEB86E)
Complete name : \Download\Torrent\Rojst\Rojst.S01E01.1080p.WEB-DL.H.264.AC3.mkv
Format : Matroska
Format version : Version 4 / Version 2
File size : 2.89 GiB
Duration : 50mn 43s
Overall bit rate mode : Variable
Overall bit rate : 8 168 Kbps
Encoded date : UTC 2018-12-21 14:09:24
Writing application : mkvmerge v21.0.0 ('Tardigrades Will Inherit The Earth') 64-bit
Writing library : libebml v1.3.5 + libmatroska v1.4.8
DURATION : 00:47:14.320000000
NUMBER_OF_FRAMES : 420
NUMBER_OF_BYTES : 19108
_STATISTICS_WRITING_APP : mkvmerge v21.0.0 ('Tardigrades Will Inherit The Earth') 64-bit
_STATISTICS_WRITING_DATE_UTC : 2018-12-21 14:09:24
_STATISTICS_TAGS : BPS DURATION NUMBER_OF_FRAMES NUMBER_OF_BYTES

Video
ID : 1
Format : AVC
Format/Info : Advanced Video Codec
Format profile : High@L4.0
Format settings, CABAC : Yes
Format settings, ReFrames : 4 frames
Codec ID : V_MPEG4/ISO/AVC
Duration : 50mn 43s
Bit rate mode : Variable
Bit rate : 7 621 Kbps
Maximum bit rate : 12.0 Mbps
Width : 1 920 pixels
Height : 800 pixels
Display aspect ratio : 2.40:1
Frame rate mode : Constant
Frame rate : 29.970 fps
Color space : YUV
Chroma subsampling : 4:2:0
Bit depth : 8 bits
Scan type : Progressive
Bits/(Pixel*Frame) : 0.166
Stream size : 2.70 GiB (93%)
Default : Yes
Forced : Yes
Color primaries : BT.709
Transfer characteristics : BT.709
Matrix coefficients : BT.709
DURATION : 00:50:43.182000000
NUMBER_OF_FRAMES : 91204
NUMBER_OF_BYTES : 2960074791
_STATISTICS_WRITING_APP : mkvmerge v21.0.0 ('Tardigrades Will Inherit The Earth') 64-bit
_STATISTICS_WRITING_DATE_UTC : 2018-12-21 14:09:24
_STATISTICS_TAGS : BPS DURATION NUMBER_OF_FRAMES NUMBER_OF_BYTES

Audio
ID : 2
Format : AC-3
Format/Info : Audio Coding 3
Mode extension : CM (complete main)
Format settings, Endianness : Big
Codec ID : A_AC3
Duration : 50mn 43s
Bit rate mode : Constant
Bit rate : 384 Kbps
Channel(s) : 2 channels
Channel positions : Front: L R
Sampling rate : 48.0 KHz
Bit depth : 16 bits
Compression mode : Lossy
Stream size : 139 MiB (5%)
Language : Polish
Default : Yes
Forced : Yes

Text #1
ID : 3
Format : UTF-8
Codec ID : S_TEXT/UTF8
Codec ID/Info : UTF-8 Plain Text
Language : English
Default : No
Forced : No

Text #2
ID : 4
Format : UTF-8
Codec ID : S_TEXT/UTF8
Codec ID/Info : UTF-8 Plain Text
Language : Russian
Default : Yes
Forced : No
скриншот  скриншот  скриншот  
pb.wtf



Скачать Болото через торрент https://i107.fastpic.ru/big/2018/1226/54/773ac692e43f1df5c59c5b30e6d4a354.jpg Скачать фильм Болото через торрент бесплантно в хорошем качестве Описание: Действие сериала происходит в вымышленном провинциальном городке на западе Польши. 1984 год, военное положение из за протестов ... 10 10 1
Торрент: Зарегистрирован [2019-01-13 19:13] · скачан: 22 раз
Статус: √ проверено
Размер: 14.3 GB
Как cкачать? Как скачать Болото через торрент | qTorrent

28-11-2019 20:33  

Отключить всю рекламу на сайте

    Дорогой пользователь! Огромная просьба, поблагодарите релизера, оцените раздачу и оставьте свои комментарий, если Вы скачали Болото через торрент бесплатно! Внесите свою лепту в развитие PiratBit!
    Комментировать посты могут только пользователи прошедшие не сложную регистрацию
    Показать сообщения:    

    Болото через торрент
    Скачать бесплатно Болото
    Болото скачать торрент
    Болото смотреть онлайн
    Cкачать фильм Болото бесплатно
    Болото скачать торрент в хорошем качестве
    Болото смотреть онлайн бесплатно в хорошем качестве


    Вы не можете начинать темы
    Вы не можете отвечать на сообщения
    Вы не можете редактировать свои сообщения
    Вы не можете удалять свои сообщения
    Вы не можете голосовать в опросах
    Вы не можете прикреплять файлы к сообщениям
    Вы можете скачивать файлы