новый адрес пиратбит piratbit
Мега распродажа FORZA HORIZON 4 ULTIMATE+ВСЕ DLC+ОНЛАЙН всего за 499р. 349 руб. (супер цена). Внимание количество ограничено!!!

iTunes

1+1

iTunes

мы

iTunes

1

iTunes

Чернобыль

iTunes

Ральф против интернета

Лицензия

ПШазам

Лицензия

Игра престолов

Лицензия

30
pack

ВАЖНО

!!Акция!!

Alien_RageХит недели

RePack

Resident Evil 21

ИГРА 18+

pack

RePack

Metro:Exodus

!!Акция!!

Alien_Rage

RePack

fifa19

RePack

Assassins Creed: Odyssey

RePack

NEED FOR SPEED™ PAYBACK

3 сезон

9 сезон

Бесстыжие 9 сезон

Все сериалы

все сериалы на PB.wtf

RePack

FAR CRY 5
Ребята, катастрофически не хватает 1900р. для оплаты серверов за Октябрь (всвязи с блокировками трафик упал в 3 раза), 1-2р., выручайте.
  

Наследники Рабурдэна (Валентин Плучек, Евгений Весник) [1962, СССР, комедия, телеспектакль, SATRip от AVP Studio] pb.wtf

Наследники Рабурдэна через торрент pb.wtf

Размер: 1.09 GB | Добавлен: 10 мес. назад | Торрент скачан:5 раз
Скачать  

14-01-2019 08:53 Наследники Рабурдэна Скачать торрент  

Наследники Рабурдэна
Страна: СССР
Производство: Главная редакция литературно-драматических программ ЦТ

Жанр: комедия, телеспектакль
Год выпуска: 1962
Продолжительность: 01:29:23

Перевод: Не требуется
Cубтитры: нет
Оригинальная аудиодорожка: русский

Режиссер: Валентин Плучек, Евгений Весник

В ролях:
Евгений Весник, Нина Архипова, Анатолий Папанов, Ольга Аросева, Валентина Токарская, Георгий Менглет, Александр Белявский, Алексей Овечкин, Галина Степанова (II), Андрей Крюков...
Об актёрах подробней

Описание:
Телеспектакль Театра сатиры по одноименной комедии Эмиля Золя.
Время действия – 1870-е годы, Франция. Буржуа Рабурден промотал свое состояние, а родственники, не зная этого, делят несуществующее наследство. Сюжет прост, комичен, но вечные темы – деньги и взаимоотношения людей, истинная страстная любовь и бескорыстие.

Исходник: DVB
Качество видео: SATRip
Формат видео: AVI

Видео: 688x512 (4:3), 25,000 кадров/сек, XviD ~ 1542 kbps avg, 0.175 bit/pixel
Аудио: 48 kHz, Dolby Digital AC3 2.0, 192 kbps

Раздача от:
Общее
Полное имя : Nasledniki.Raburdehna.1962.SATRip_[New-team]_by_AVP_Studio.avi
Формат : AVI
Формат/Информация : Audio Video Interleave
Размер файла : 1,09 Гбайт
Продолжительность : 1 ч. 29 м.
Общий поток : 1744 Кбит/сек
Программа кодирования : VirtualDubMod 1.5.10.3 | www.virtualdub-fr.org || (build 2550/release)
Библиотека кодирования : VirtualDubMod build 2550/release

Видео
Идентификатор : 0
Формат : MPEG-4 Visual
Профиль формата : Advanced Simple@L5
Настройки формата : BVOP1 / Custom Matrix
Параметр BVOP формата : 1
Параметр QPel формата : Нет
Параметр GMC формата : Без точки перехода
Параметр матрицы формата : Выборочная
Идентификатор кодека : XVID
Идентификатор кодека/Подсказка : XviD
Продолжительность : 1 ч. 29 м.
Битрейт : 1542 Кбит/сек
Ширина : 688 пикселей
Высота : 512 пикселей
Соотношение сторон : 4:3
Частота кадров : 25,000 кадров/сек
Цветовое пространство : YUV
Субдискретизация насыщенности : 4:2:0
Битовая глубина : 8 бит
Тип развёртки : Прогрессивная
Метод сжатия : С потерями
Бит/(Пиксели*Кадры) : 0.175
Размер потока : 986 Мбайт (88%)
Библиотека кодирования : XviD 73

Аудио
Идентификатор : 1
Формат : AC-3
Формат/Информация : Audio Coding 3
Коммерческое название : Dolby Digital
Идентификатор кодека : 2000
Продолжительность : 1 ч. 29 м.
Вид битрейта : Постоянный
Битрейт : 192 Кбит/сек
Каналы : 2 канала
Channel layout : L R
Частота : 48,0 КГц
Частота кадров : 31,250 кадров/сек (1536 SPF)
Битовая глубина : 16 бит
Метод сжатия : С потерями
Размер потока : 123 Мбайт (11%)
Выравнивание : Разделение по промежуткам
Продолжительность промежутка : 40 мс. (1,00 видеокадр)
Время предзагрузки промежутка : 500 мс.
pb.wtf



Скачать Наследники Рабурдэна через торрент http://picplus.ru/img/1901/14/c942d6f6.png Скачать фильм Наследники Рабурдэна через торрент бесплантно в хорошем качестве Описание:Телеспектакль Театра сатиры по одноименной комедии Эмиля Золя.Время действия – 1870-е годы, Франция. Буржуа Рабурден промотал свое ... 5 10 1
Торрент: Зарегистрирован [2019-01-14 08:53] · скачан: 5 раз
Статус: √ проверено
Размер: 1.09 GB
Как cкачать? Как скачать Наследники Рабурдэна через торрент | qTorrent

% Раздел Тема Автор DL S | L
Кино СССР [ 1.09 GB ] Наследники Рабурдэна [1962 СССР телеспектакль SATRip-AVC от AVP Studio] AVP Studio Скачать
2 | 0


>> Регистрируемся здесь <<






Отзывы и комментарии о схеме читаем и пишем здесь: ---> Отзывы и комментарии о схеме

Новые благодарочки в телеграм довольных пользователей:
скриншот   скриншот   скриншот   скриншот   скриншот
    Дорогой пользователь! Огромная просьба, поблагодарите релизера, оцените раздачу и оставьте свои комментарий, если Вы скачали Наследники Рабурдэна через торрент бесплатно! Внесите свою лепту в развитие PiratBit!
    Комментировать посты могут только пользователи прошедшие не сложную регистрацию
    Показать сообщения:    

    Наследники Рабурдэна через торрент
    Скачать бесплатно Наследники Рабурдэна
    Наследники Рабурдэна скачать торрент
    Наследники Рабурдэна смотреть онлайн
    Cкачать фильм Наследники Рабурдэна бесплатно
    Наследники Рабурдэна скачать торрент в хорошем качестве
    Наследники Рабурдэна смотреть онлайн бесплатно в хорошем качестве


    Вы не можете начинать темы
    Вы не можете отвечать на сообщения
    Вы не можете редактировать свои сообщения
    Вы не можете удалять свои сообщения
    Вы не можете голосовать в опросах
    Вы не можете прикреплять файлы к сообщениям
    Вы можете скачивать файлы