Всегда рабочее зеркало без VPN и Proxy просто перед .vidak.icu напиши любое слово или цифру, Пример http://2bkq.vidak.icu

MVO

Лицензия

1 сезон

1

1 сезон

iTunes

1 сезон

13

1 сезон

Deluxe

pack

Рекомендуем

Пиратка

30

ВАЖНО

RePack

MK11

RePack

jed

RePack

fifa19

RePack

RDR2

RePack

NEED FOR SPEED™ PAYBACK

Кинопоиск HD

6 сезон

 Острые козырьки 6 сезон

Все сериалы

все сериалы на PB.wtf

RePack

FAR CRY 5

Anonymous, нам критически не хватает 2100 руб. на оплату серверов и переферии за МАЙ, помоги нам пожалуйста, вся надежда только на тебя. В благодарность мы отключим тебе всю рекламу на сайте!

×
  
Magnet ссылка

Tomb Raider: Лара Крофт / Tomb Raider (Роар Утхауг) [2018, фэнтези, боевик, приключения, UHD BDRip 2160p] [SDR] DUB (rus, ukr) + MVO + AVO pb.wtf

Tomb Raider: Лара Крофт через торрент pb.wtf

Размер: 30.06 GB | Добавлен: 3 года 5 мес. назад | Торрент скачан:34 раза
Смотреть онлайн Tomb Raider: Лара Крофт | Скачать    Ребята, помогите собрать деньги на оплату серверов!!!

14-01-2019 13:17 Tomb Raider: Лара Крофт Скачать торрент  

Tomb Raider: Лара Крофт / Tomb Raider

Год выпуска: 2018
Страна: Великобритания, США
Жанр: фэнтези, боевик, приключения
Продолжительность: 01:57:50
Перевод: Дублированный, профессиональный многоголосый, авторский
Субтитры: Русские(Forced,Full), английские(SDH)
Режиссер: Роар Утхауг
В ролях:

Алисия Викандер (Lara Croft), Доминик Уэст (Richard Croft), Уолтон Гоггинс (Mathias Vogel), Дэниэл Ву (Lu Ren), Кристин Скотт Томас (Ana Miller), Дерек Джекоби (Mr. Yaffe), Александр Виллауме (Lieutenant), Тамер Барджаг (Mercenary), Эдриан Коллинз (Mercenary), Кинэн Эррисон (Mercenary), Андриан Мазив (Mercenary), Милтон Шорр (Mercenary)
Описание:
Лара Крофт - весьма самостоятельная дочь эксцентричного искателя приключений, который пропал, едва она стала подростком. Теперь ей двадцать один, она бесцельно проживает свою жизнь, курьером рассекая на байке по забитым улицам восточного Лондона. Решительно настроенная пробиться сама, она отказывается брать на себя руководство глобальной империей отца, столь же категорично отвергая мысль о том, что он действительно пропал. Слыша советы о том, что ей нужно смириться с этим фактом и жить дальше после семи лет бесплодных поисков, Лара уже и сама не понимает, что же заставляет ее распутывать обстоятельства его таинственного исчезновения.
Рейтинг:

MPAA: PG-13 - Детям до 13 лет просмотр не желателен
Качество: UHD BDRip 2160p | SDR
Формат: MKV
Видео: MPEG-4 AVC, 30800 Кбит/с, 3840x1606, 23.976 кадр/с
Аудио #1: AC-3, 48.0 kHz, 6 ch, 448 kb/s, (Russian) | Дублированный |
Аудио #2: AC-3, 48.0 kHz, 6 ch, 640 kb/s,(Russian) | MVO, HDrezka Studio |
Аудио #3: AC-3, 48.0 kHz, 6 ch, 640 kb/s, (Russian) | AVO, BadBajo |
Аудио #4: AC-3, 48.0 kHz, 2 ch, 192 kb/s, (Ukrainian) | Дублированный |
Аудио #5: TrueHD+Atmos, 48.0 kHz, 8 ch, 3214 kb/s (English) Original
Аудио #6: AC-3, 48.0 kHz, 6 ch, 640 kb/s (English) Original
Навигация по главам: есть
Общее
Уникальный идентификатор : 222137811818217065880414955344275910202 (0xA71E2FB50925FB9DAC6C35DA5C972E3A)
Полное имя : D:\Новая папкаVid\Новая_Мои раздачи\Tomb.Raider.2018.2160p.BluRay.x264.8bit.SDR.Master5.mkv
Формат : Matroska
Версия формата : Version 4 / Version 2
Размер файла : 30,1 Гбайт
Продолжительность : 1 ч. 57 м.
Режим общего битрейта : Переменный
Общий поток : 36,5 Мбит/сек
Название фильма : Tomb.Raider.2018.2160p.BluRay.x264.8bit.SDR.Master5
Дата кодирования : UTC 2018-06-15 22:18:06
Программа кодирования : mkvmerge v8.1.0 ('Psychedelic Postcard') 32bit
Библиотека кодирования : libebml v1.3.1 + libmatroska v1.4.2
Обложка : Yes
Attachments : small_cover.jpg / small_cover_land.jpg / cover.jpg / cover_land.jpg

Видео
Идентификатор : 1
Формат : AVC
Формат/Информация : Advanced Video Codec
Профиль формата : High@L5.1
Параметр CABAC формата : Да
Параметр ReFrames формата : 5 кадров
Идентификатор кодека : V_MPEG4/ISO/AVC
Продолжительность : 1 ч. 57 м.
Битрейт : 30,8 Мбит/сек
Ширина : 3840 пикселей
Высота : 1606 пикселей
Соотношение сторон : 2,40:1
Режим частоты кадров : Постоянный
Частота кадров : 23,976 (24000/1001) кадра/сек
Цветовое пространство : YUV
Субдискретизация насыщенности : 4:2:0
Битовая глубина : 8 бит
Тип развёртки : Прогрессивная
Бит/(Пиксели*Кадры) : 0.209
Размер потока : 25,4 Гбайт (84%)
Заголовок : Tomb.Raider.2018.2160p.BluRay.x264.8bit.SDR.Master5
Библиотека кодирования : x264 core 148 r2748 97eaef2
Настройки программы : cabac=1 / ref=5 / deblock=1:-1:-1 / analyse=0x3:0x113 / me=umh / subme=10 / psy=1 / psy_rd=1.00:0.15 / mixed_ref=1 / me_range=48 / chroma_me=1 / trellis=2 / 8x8dct=1 / cqm=0 / deadzone=21,11 / fast_pskip=1 / chroma_qp_offset=-3 / threads=50 / lookahead_threads=4 / sliced_threads=0 / nr=0 / decimate=0 / interlaced=0 / bluray_compat=0 / constrained_intra=0 / bframes=3 / b_pyramid=2 / b_adapt=2 / b_bias=0 / direct=3 / weightb=1 / open_gop=0 / weightp=2 / keyint=250 / keyint_min=23 / scenecut=40 / intra_refresh=0 / rc_lookahead=50 / rc=crf / mbtree=1 / crf=18.0 / qcomp=0.60 / qpmin=0 / qpmax=69 / qpstep=4 / ip_ratio=1.40 / aq=1:1.00
Default : Да
Forced : Нет

Аудио #1
Идентификатор : 2
Формат : AC-3
Формат/Информация : Audio Coding 3
Расширение режима : CM (complete main)
Параметр Endianness формата : Big
Идентификатор кодека : A_AC3
Продолжительность : 1 ч. 57 м.
Вид битрейта : Постоянный
Битрейт : 448 Кбит/сек
Каналы : 6 каналов
Расположение каналов : Front: L C R, Side: L R, LFE
Частота : 48,0 КГц
Частота кадров : 31,250 кадров/сек (1536 spf)
Метод сжатия : С потерями
Размер потока : 378 Мбайт (1%)
Заголовок : Дублированный
Язык : Russian
Default : Да
Forced : Да

Аудио #2
Идентификатор : 3
Формат : AC-3
Формат/Информация : Audio Coding 3
Расширение режима : CM (complete main)
Параметр Endianness формата : Big
Идентификатор кодека : A_AC3
Продолжительность : 1 ч. 57 м.
Вид битрейта : Постоянный
Битрейт : 640 Кбит/сек
Каналы : 6 каналов
Расположение каналов : Front: L C R, Side: L R, LFE
Частота : 48,0 КГц
Частота кадров : 31,250 кадров/сек (1536 spf)
Метод сжатия : С потерями
Размер потока : 539 Мбайт (2%)
Заголовок : MVO, HDrezka Studio
Язык : Russian
Default : Нет
Forced : Нет

Аудио #3
Идентификатор : 4
Формат : AC-3
Формат/Информация : Audio Coding 3
Расширение режима : CM (complete main)
Параметр Endianness формата : Big
Идентификатор кодека : A_AC3
Продолжительность : 1 ч. 57 м.
Вид битрейта : Постоянный
Битрейт : 640 Кбит/сек
Каналы : 6 каналов
Расположение каналов : Front: L C R, Side: L R, LFE
Частота : 48,0 КГц
Частота кадров : 31,250 кадров/сек (1536 spf)
Метод сжатия : С потерями
Размер потока : 539 Мбайт (2%)
Заголовок : AVO, BadBajo
Язык : Russian
Default : Нет
Forced : Нет

Аудио #4
Идентификатор : 5
Формат : AC-3
Формат/Информация : Audio Coding 3
Расширение режима : CM (complete main)
Параметр Endianness формата : Big
Идентификатор кодека : A_AC3
Продолжительность : 1 ч. 57 м.
Вид битрейта : Постоянный
Битрейт : 192 Кбит/сек
Каналы : 2 канала
Расположение каналов : Front: L R
Частота : 48,0 КГц
Частота кадров : 31,250 кадров/сек (1536 spf)
Метод сжатия : С потерями
Размер потока : 162 Мбайт (1%)
Заголовок : Дублированный
Язык : Ukrainian
Default : Нет
Forced : Нет

Аудио #5
Идентификатор : 6
Формат : Atmos / TrueHD
Идентификатор кодека : A_TRUEHD
Продолжительность : 1 ч. 57 м.
Вид битрейта : Переменный
Битрейт : 3214 Кбит/сек
Максимальный битрейт : 5520 Кбит/сек
Каналы : Object Based / 8 каналов
Расположение каналов : Object Based / Front: L C R, Side: L R, Back: L R, LFE
Частота : / 48,0 КГц
Частота кадров : 1200,000 кадров/сек (40 spf)
Метод сжатия : Без потерь
Размер потока : 2,64 Гбайт (9%)
Язык : English
Default : Нет
Forced : Нет

Аудио #6
Идентификатор : 7
Формат : AC-3
Формат/Информация : Audio Coding 3
Расширение режима : CM (complete main)
Параметр Endianness формата : Big
Идентификатор кодека : A_AC3
Продолжительность : 1 ч. 57 м.
Вид битрейта : Постоянный
Битрейт : 448 Кбит/сек
Каналы : 6 каналов
Расположение каналов : Front: L C R, Side: L R, LFE
Частота : 48,0 КГц
Частота кадров : 31,250 кадров/сек (1536 spf)
Метод сжатия : С потерями
Размер потока : 378 Мбайт (1%)
Язык : English
Default : Нет
Forced : Нет

Текст #1
Идентификатор : 8
Формат : PGS
Режим смешивания : zlib
Идентификатор кодека : S_HDMV/PGS
Идентификатор кодека/Информация : Picture based subtitle format used on BDs/HD-DVDs
Продолжительность : 1 ч. 56 м.
Битрейт : 453 бит/сек
Count of elements : 72
Размер потока : 385 Кбайт (0%)
Заголовок : Forced
Язык : Russian
Default : Нет
Forced : Нет

Текст #2
Идентификатор : 9
Формат : PGS
Режим смешивания : zlib
Идентификатор кодека : S_HDMV/PGS
Идентификатор кодека/Информация : Picture based subtitle format used on BDs/HD-DVDs
Продолжительность : 1 ч. 56 м.
Битрейт : 12,0 Кбит/сек
Count of elements : 1718
Размер потока : 10,1 Мбайт (0%)
Заголовок : Full
Язык : Russian
Default : Нет
Forced : Да

Текст #3
Идентификатор : 10
Формат : PGS
Режим смешивания : zlib
Идентификатор кодека : S_HDMV/PGS
Идентификатор кодека/Информация : Picture based subtitle format used on BDs/HD-DVDs
Продолжительность : 1 ч. 56 м.
Битрейт : 10,4 Кбит/сек
Count of elements : 1718
Размер потока : 8,73 Мбайт (0%)
Заголовок : Full
Язык : Russian
Default : Нет
Forced : Нет

Текст #4
Идентификатор : 11
Формат : PGS
Режим смешивания : zlib
Идентификатор кодека : S_HDMV/PGS
Идентификатор кодека/Информация : Picture based subtitle format used on BDs/HD-DVDs
Продолжительность : 1 ч. 56 м.
Битрейт : 6865 бит/сек
Count of elements : 2244
Размер потока : 5,74 Мбайт (0%)
Заголовок : SDH
Язык : English
Default : Нет
Forced : Нет

Меню
00:00:00.000 : en:Chapter 1
00:13:13.250 : en:Chapter 2
00:24:04.234 : en:Chapter 3
00:31:57.999 : en:Chapter 4
00:39:57.061 : en:Chapter 5
00:50:31.069 : en:Chapter 6
01:04:49.844 : en:Chapter 7
01:13:58.100 : en:Chapter 8
01:20:17.395 : en:Chapter 9
01:27:41.130 : en:Chapter 10
01:38:41.624 : en:Chapter 11
01:51:17.420 : en:Chapter 12
pb.wtf



Скачать Tomb Raider: Лара Крофт через торрент https://c.radikal.ru/c09/1901/25/17f152a7f3a7.png Скачать, смотреть онлайн Tomb Raider: Лара Крофт бесплантно в хорошем качестве Описание: Лара Крофт - весьма самостоятельная дочь эксцентричного искателя приключений, который пропал, едва она стала подростком. Теперь ... 7.4 10 7
Info! Золотая раздача, скачанное не засчитывается.
Торрент: Зарегистрирован [2019-01-14 13:17] · скачан: 34 раз
Статус: √ проверено
Размер: 30.06 GB
Как cкачать? Как скачать Tomb Raider: Лара Крофт через торрент | UTorrent

% Раздел Тема Автор DL S | L
Фильмы [HD 720p, 1080p] (Хороший звук DUB, MVO) [ 8.98 GB ] Tomb Raider: Лара Крофт / Tomb Raider [2018 BDRip-HEVC 1080p 10 Bit] AVO [BadBajo] +MVO [HDrezka Studio] +DUB [] bober100 Скачать
2 | 0
Ultra HD (UHD: 2K, 4K, 8K) — видео сверхвысокой чёткости [ 17.81 GB ] Tomb Raider: Лара Крофт / Tomb Raider [2018 UHD BDRip 2160p] DUB + MVO + AVO sheker187 Скачать
1 | 0
Ultra HD (UHD: 2K, 4K, 8K) — видео сверхвысокой чёткости [ 54.87 GB ] Tomb Raider: Лара Крофт / Tomb Raider [2018 UHD BDRemux 2160p] [HDR: Dolby Vision + HDR10] AVO [BadBajo] +MVO [HDrezka Studio] +DUB [] bober100 Скачать
1 | 0
Ultra HD (UHD: 2K, 4K, 8K) — видео сверхвысокой чёткости [ 54.05 GB ] Tomb Raider: Лара Крофт / Tomb Raider [2018 UHD BDRemux 2160p] AVO [BadBajo] +MVO [HDrezka Studio] +DUB [] bober100 Скачать
1 | 0
Фильмы 2018 [DVDrip, WEB-DLRip, HDrip] (DUB, MVO) [ 3.01 GB ] Tomb Raider: Лара Крофт / Tomb Raider [2018 BDRip-AVC] MVO AVO [BadBajo] Dub [Ukr] - ExKinoRay Enigma2010 Скачать
1 | 0
Ultra HD (UHD: 2K, 4K, 8K) — видео сверхвысокой чёткости [ 50.72 GB ] Лара Крофт: Расхитительница гробниц 2 - Колыбель жизни / Lara Croft Tomb Raider: The Cradle of Life [2003 UHD BD Remux 2160p] DUB+DVO+AVO+MVO+2xMVO bober100 Скачать
1 | 0

28-11-2019 20:33  

Отключить всю рекламу на сайте

    Дорогой пользователь! Огромная просьба, поблагодарите релизера, оцените раздачу и оставьте свои комментарий, если Вы скачали Tomb Raider: Лара Крофт через торрент бесплатно!
    Комментировать посты могут только пользователи прошедшие не сложную регистрацию
    Показать сообщения:    

    Tomb Raider: Лара Крофт через торрент
    Скачать бесплатно Tomb Raider: Лара Крофт
    Tomb Raider: Лара Крофт скачать торрент
    Tomb Raider: Лара Крофт смотреть онлайн
    Cкачать фильм Tomb Raider: Лара Крофт бесплатно
    Tomb Raider: Лара Крофт скачать торрент в хорошем качестве
    Tomb Raider: Лара Крофт смотреть онлайн бесплатно в хорошем качестве


    Вы не можете начинать темы
    Вы не можете отвечать на сообщения
    Вы не можете редактировать свои сообщения
    Вы не можете удалять свои сообщения
    Вы не можете голосовать в опросах
    Вы не можете прикреплять файлы к сообщениям
    Вы можете скачивать файлы