Ссылка на приватное зеркало всего за 1$. Внимание количество ограничено!!!

OK

1+1

iTunes

мы

OK

1

WEB-DLRip

Джокер

Пифагор

Ведьмак / The Witcher сериал

iTunes

ПШазам

ОК

Оно 2

iTunes

30
pack

Вам бонус

ВАЖНО

!!Акция!!

Alien_RageХит недели

RePack

Resident Evil 21

ИГРА 18+

pack

RePack

jed

RePack

fifa19

RePack

Assassins Creed: Odyssey

RePack

NEED FOR SPEED™ PAYBACK

4 сезон

9 сезон

Бесстыжие 9 сезон

Все сериалы

все сериалы на PB.wtf

RePack

FAR CRY 5
  

Голая Нормандия / Normandie nue (Филипп Ле Гюэ) [2018 г., Драма, комедия, HDRip, Любительский (многоголосый)(Синема УС)] pb.wtf

Голая Нормандия через торрент pb.wtf

Размер: 1.42 GB | Добавлен: 1 год назад | Торрент скачан:102 раза
Скачать  

14-01-2019 15:06 Голая Нормандия Скачать торрент  

Голая Нормандия / Normandie nue
Год выпуска: 2018
Страна: Франция
Жанр: Драма, комедия
Продолжительность: 01:48:47
Перевод: Любительский (многоголосый)(Синема УС)
Субтитры: Отсутствуют

Режиссер: Филипп Ле Гюэ

rating

В ролях: Франсуа Клюзе, Франсуа-Ксавье Демезон, Жюли-Анна Рот, Пили Груан, Тоби Джонс, Винсент Риган, Колин Бейтс, Артур Дюпон, Дафне Дюмонс, Люкрес Карминьяк

Описание: Чтобы выйти из кризиса и добиться справедливости, мэр глухой французской деревушки уговаривает ее жителей посниматься голыми для американского фотографа.

Доп. информация: Присутствуют вставки текстовой рекламы

Качество: HDRip
Формат: AVI
Видео кодек: XviD
Аудио кодек: AC3
Видео: XviD, 720x384, ~1607 Kbps
Аудио#1: AC-3, 2 ch, 256 Kbps
скриншот   скриншот   скриншот   скриншот  

Общее
Полное имя : C:\_\Голая Нормандия\Normandie nue 2018 HDRip.avi
Формат : AVI
Формат/Информация : Audio Video Interleave
Профиль формата : OpenDML
Размер файла : 1,42 Гбайт
Продолжительность : 1 ч. 48 м.
Общий поток : 1875 Кбит/сек

Видео
Идентификатор : 0
Формат : MPEG-4 Visual
Профиль формата : Advanced Simple@L5
Параметр BVOP формата : 2
Параметр QPel формата : Нет
Параметр GMC формата : Без точки перехода
Параметр матрицы формата : Выборочная
Идентификатор кодека : XVID
Идентификатор кодека/Подсказка : XviD
Продолжительность : 1 ч. 48 м.
Битрейт : 1607 Кбит/сек
Ширина : 720 пикселей
Высота : 384 пикселя
Соотношение сторон : 1,85:1
Частота кадров : 23,976 (24000/1001) кадра/сек
Цветовое пространство : YUV
Субдискретизация насыщенности : 4:2:0
Битовая глубина : 8 бит
Тип развёртки : Прогрессивная
Метод сжатия : С потерями
Бит/(Пиксели*Кадры) : 0.242
Размер потока : 1,22 Гбайт (86%)
Библиотека кодирования : XviD 1.2.1 (UTC 2008-12-04)

Аудио
Идентификатор : 1
Формат : AC-3
Формат/Информация : Audio Coding 3
Расширение режима : CM (complete main)
Параметр Endianness формата : Big
Идентификатор кодека : 2000
Продолжительность : 1 ч. 48 м.
Вид битрейта : Постоянный
Битрейт : 256 Кбит/сек
Каналы : 2 канала
Расположение каналов : Front: L R
Частота : 48,0 КГц
Частота кадров : 31,250 кадров/сек (1536 spf)
Метод сжатия : С потерями
Размер потока : 199 Мбайт (14%)
Выравнивание : Соединение по промежуткам
Продолжительность промежутка : 32 мс. (0,77 видеокадр)

pb.wtf



Скачать Голая Нормандия через торрент http://pic1.kartinco.top/images/12/wykrt.jpg Скачать фильм Голая Нормандия через торрент бесплантно в хорошем качестве Описание: Чтобы выйти из кризиса и добиться справедливости, мэр глухой французской деревушки уговаривает ее жителей посниматься голыми для ... 10 10 2
Торрент: Зарегистрирован [2019-01-14 15:06] · скачан: 102 раз
Статус: T временная
Размер: 1.42 GB
Как cкачать? Как скачать Голая Нормандия через торрент | qTorrent

28-11-2019 20:33  

Отключить всю рекламу на сайте

    Дорогой пользователь! Огромная просьба, поблагодарите релизера, оцените раздачу и оставьте свои комментарий, если Вы скачали Голая Нормандия через торрент бесплатно! Внесите свою лепту в развитие PiratBit!
    Комментировать посты могут только пользователи прошедшие не сложную регистрацию
    Показать сообщения:    

    Голая Нормандия через торрент
    Скачать бесплатно Голая Нормандия
    Голая Нормандия скачать торрент
    Голая Нормандия смотреть онлайн
    Cкачать фильм Голая Нормандия бесплатно
    Голая Нормандия скачать торрент в хорошем качестве
    Голая Нормандия смотреть онлайн бесплатно в хорошем качестве


    Вы не можете начинать темы
    Вы не можете отвечать на сообщения
    Вы не можете редактировать свои сообщения
    Вы не можете удалять свои сообщения
    Вы не можете голосовать в опросах
    Вы не можете прикреплять файлы к сообщениям
    Вы можете скачивать файлы