Ссылка на приватное зеркало всего за 1$. Внимание количество ограничено!!!

OK

1+1

iTunes

мы

OK

1

WEB-DLRip

Джокер

Пифагор

Ведьмак / The Witcher сериал

iTunes

ПШазам

ОК

Оно 2

iTunes

30
pack

Вам бонус

ВАЖНО

!!Акция!!

Alien_RageХит недели

RePack

Resident Evil 21

ИГРА 18+

pack

RePack

jed

RePack

fifa19

RePack

Assassins Creed: Odyssey

RePack

NEED FOR SPEED™ PAYBACK

4 сезон

9 сезон

Бесстыжие 9 сезон

Все сериалы

все сериалы на PB.wtf

RePack

FAR CRY 5
  

В одиночку / Solo (Хьюго Стювен) [2018 г., Драма, мелодрама, приключения, WEBRip, Любительский (многоголосый)(Синема УС)] pb.wtf

В одиночку через торрент pb.wtf

Раздают: 1 [ 0 KB/s ]
Размер: 1.39 GB | Добавлен: 1 год назад | Торрент скачан:157 раз
Скачать  

14-01-2019 15:28 В одиночку Скачать торрент  

В одиночку / Solo
Год выпуска: 2018
Страна: Испания
Жанр: Драма, мелодрама, приключения
Продолжительность: 01:30:38
Перевод: Любительский (многоголосый)(Синема УС)
Субтитры: Отсутствуют

Режиссер: Хьюго Стювен

rating

В ролях: Ален Эрнандес, Аура Гарридо, Бен Темпле, Летисия Этала, Альваро Бискайно, Франсиско Хавьер Болея Фернандес, Алессандро Банделло, Ренцо Муриас Аюсо, Симон Эспинк, Есарела Арсуменди

Описание: После того, как в течение 48 долгих часов он упал со скалы и получил серьезные травмы, молодой серфер должен столкнуться с беспощадной природой и собственной физической и психической мукой, чтобы попытаться выжить.

Доп. информация: Присутствуют вставки текстовой рекламы

Качество: WEBRip
Формат: AVI
Видео кодек: XviD
Аудио кодек: AC3
Видео: XviD, 720x304, ~1738 Kbps
Аудио#1: AC-3, 2 ch, 448 Kbps
скриншот   скриншот   скриншот   скриншот  

Общее
Полное имя : C:\_\В одиночку\Solo 2018 WEBRip.avi
Формат : AVI
Формат/Информация : Audio Video Interleave
Профиль формата : OpenDML
Размер файла : 1,39 Гбайт
Продолжительность : 1 ч. 30 м.
Общий поток : 2198 Кбит/сек

Видео
Идентификатор : 0
Формат : MPEG-4 Visual
Профиль формата : Advanced Simple@L5
Параметр BVOP формата : 2
Параметр QPel формата : Нет
Параметр GMC формата : Без точки перехода
Параметр матрицы формата : Выборочная
Идентификатор кодека : XVID
Идентификатор кодека/Подсказка : XviD
Продолжительность : 1 ч. 30 м.
Битрейт : 1738 Кбит/сек
Ширина : 720 пикселей
Высота : 304 пикселя
Соотношение сторон : 2,35:1
Частота кадров : 23,976 (24000/1001) кадра/сек
Цветовое пространство : YUV
Субдискретизация насыщенности : 4:2:0
Битовая глубина : 8 бит
Тип развёртки : Прогрессивная
Метод сжатия : С потерями
Бит/(Пиксели*Кадры) : 0.331
Размер потока : 1,10 Гбайт (79%)
Библиотека кодирования : XviD 1.2.1 (UTC 2008-12-04)

Аудио
Идентификатор : 1
Формат : AC-3
Формат/Информация : Audio Coding 3
Расширение режима : CM (complete main)
Параметр Endianness формата : Big
Идентификатор кодека : 2000
Продолжительность : 1 ч. 30 м.
Вид битрейта : Постоянный
Битрейт : 448 Кбит/сек
Каналы : 2 канала
Расположение каналов : Front: L R
Частота : 48,0 КГц
Частота кадров : 31,250 кадров/сек (1536 spf)
Метод сжатия : С потерями
Размер потока : 290 Мбайт (20%)
Выравнивание : Соединение по промежуткам
Продолжительность промежутка : 32 мс. (0,77 видеокадр)

pb.wtf



Скачать В одиночку через торрент http://pic1.kartinco.top/images/12/ecfhn.jpg Скачать фильм В одиночку через торрент бесплантно в хорошем качестве Описание: После того, как в течение 48 долгих часов он упал со скалы и получил серьезные травмы, молодой серфер должен столкнуться с ... 9.6 10 5
Торрент: Зарегистрирован [2019-01-14 15:28] · скачан: 157 раз
Статус: T временная
Размер: 1.39 GB
Как cкачать? Как скачать В одиночку через торрент | qTorrent

% Раздел Тема Автор DL S | L
Аниме (HD DVD и Blu-ray) [ 18.05 GB ] Ghost in the Shell Stand Alone Complex / Призрак в доспехах: Синдром одиночки // 2 сезон c 1 по 26 из [2004 киберпанк полиция BDRip 1080p] stivens777 Скачать
1 | 0
Аниме (HD DVD и Blu-ray) [ 16.71 GB ] Ghost in the Shell: Stand Alone Complex / Призрак в доспехах: Синдром одиночки / Сезон: 1 1-26 [2002 киберпанк полиция BDRip] stivens777 Скачать
1 | 0
Аниме [DVDrip, WEB-DLRip, HDrip] [ 1.96 GB ] Призрак в Доспехах: Синдром Одиночки - Сообщество Стабильной Государственности / Ghost in the Shell: SAC - Solid State Society [2006 аниме мультфильм DVDRip] capral555 Скачать
1 | 0

28-11-2019 20:33  

Отключить всю рекламу на сайте

14-01-2019 20:03 В одиночку Скачать торрент  

gavnopb.wtf



    Дорогой пользователь! Огромная просьба, поблагодарите релизера, оцените раздачу и оставьте свои комментарий, если Вы скачали В одиночку через торрент бесплатно! Внесите свою лепту в развитие PiratBit!
    Комментировать посты могут только пользователи прошедшие не сложную регистрацию
    Показать сообщения:    

    В одиночку через торрент
    Скачать бесплатно В одиночку
    В одиночку скачать торрент
    В одиночку смотреть онлайн
    Cкачать фильм В одиночку бесплатно
    В одиночку скачать торрент в хорошем качестве
    В одиночку смотреть онлайн бесплатно в хорошем качестве


    Вы не можете начинать темы
    Вы не можете отвечать на сообщения
    Вы не можете редактировать свои сообщения
    Вы не можете удалять свои сообщения
    Вы не можете голосовать в опросах
    Вы не можете прикреплять файлы к сообщениям
    Вы можете скачивать файлы