Присоединяйтесь к нам в Telegram!, здесь всегда актуальный адрес сайта, оперативная поддержка и многое другое!!

>

5.9

iTunes

7.4

iTunes

9.4

1 сезон

1

7.4

2 сезон

7.2

iTunes

7.3

1 сезон

13

6.1

iTunes

8.3

Пиратка

30

ULTIMATE

pack

9.9

Лицензия

ВАЖНО

ИГРА 18+

pack

7.3

RePack

MK11

7.7

RePack

jed

7.8

RePack

fifa19

8.5

RePack

RDR2

RePack

NEED FOR SPEED™ PAYBACK

5 сезон

9 сезон

Бесстыжие 9 сезон

Все сериалы

все сериалы на PB.wtf

RePack

FAR CRY 5

Anonymous, добрый день, мы катастрофически не успеваем собрать деньги на оплату серверов, помогите нам пожалуйста 5,10,15р., для нас важна любая помощь . В качестве благодарности мы отключим Вам всю рекламу на сайте (укажите свой ник в строку Ваше имя)!

×
  
Magnet ссылка

Юля Шереметьева и группа Леди - Выступление в Москве [2019 г., Поп, WEBRip 720p] pb.wtf

Юля Шереметьева и группа Леди - Выступление в Москве через торрент pb.wtf

Размер: 131 MB | Добавлен: 2 года 10 мес. назад | Торрент скачан:27 раз
Смотреть онлайн Юля Шереметьева и группа Леди - Выступление в Москве | Скачать    Ребята, помогите собрать деньги на оплату серверов!!!

14-01-2019 15:55 Юля Шереметьева и группа Леди - Выступление в Москве Скачать торрент  

Юля Шереметьева и группа Леди - Выступление в Москве
Год выпуска: 2019
Страна: Россия
Жанр: Поп
Продолжительность: 00:04:06

В ролях: Юля Шереметьева

Описание: Премьера песни "Кружит желтая листва". Музыка и слова Игоря Губина(скриншот №3).

Леди
Юля Шереметьева-вокал
Сергей Ворожбит-руководитель, гитара (экс гр.Кристина)
Виктория Ив-пиар-менеджер, клавишные


Качество: WEBRip 720p
Формат: MKV
Видео кодек: H.264
Аудио кодек: AAC
Видео: H.264, 1280x720 , 25.0fps, 4300 Kbps
Аудио#1: AAC , 2 ch , 48,0 kHz , 192 kbps
скриншот   скриншот   скриншот  

Lady_2019.mkv
Format : Matroska
Format version : Version 4 / Version 2
File size : 131 MiB
Duration : 4 min 6 s
Overall bit rate : 4 469 kb/s
Encoded date : UTC 2019-01-14 09:25:24
Writing application : mkvmerge v8.3.0 ('Over the Horizon') 64bit
Writing library : libebml v1.3.1 + libmatroska v1.4.2

Video
ID : 1
Format : AVC
Format/Info : Advanced Video Codec
Format profile : Main@L4.1
Format settings, CABAC : Yes
Format settings, ReFrames : 4 frames
Codec ID : V_MPEG4/ISO/AVC
Duration : 4 min 6 s
Bit rate : 4 278 kb/s
Width : 1 280 pixels
Height : 720 pixels
Display aspect ratio : 16:9
Frame rate mode : Constant
Frame rate : 25.000 FPS
Standard : PAL
Color space : YUV
Chroma subsampling : 4:2:0
Bit depth : 8 bits
Scan type : Progressive
Bits/(Pixel*Frame) : 0.186
Stream size : 126 MiB (96%)
Language : English
Default : Yes
Forced : No
Color range : Limited
Color primaries : BT.709
Transfer characteristics : BT.709
Matrix coefficients : BT.709

Audio
ID : 2
Format : AAC
Format/Info : Advanced Audio Codec
Format profile : LC
Codec ID : A_AAC
Duration : 4 min 6 s
Bit rate : 192 kb/s
Channel(s) : 2 channels
Channel positions : Front: L R
Sampling rate : 48.0 kHz
Frame rate : 46.875 FPS (1024 spf)
Compression mode : Lossy
Stream size : 5.56 MiB (4%)
Language : English
Default : Yes
Forced : No

pb.wtf



Скачать Юля Шереметьева и группа Леди - Выступление в Москве через торрент https://pic1.kartinco.top/images/12/xupov.jpg Скачать, смотреть онлайн Юля Шереметьева и группа Леди - Выступление в Москве [2019 г., Поп, WEBRip 720p] бесплантно в хорошем качестве Описание: Премьера песни "Кружит желтая листва". Музыка и слова Игоря Губина(скриншот №3).ЛедиЮля Шереметьева-вокалСергей ... 5.5 10 2
Торрент: Зарегистрирован [2019-01-14 15:55] · скачан: 27 раз
Статус: √ проверено
Размер: 131 MB
Как cкачать? Как скачать Юля Шереметьева и группа Леди - Выступление в Москве через торрент | UTorrent

28-11-2019 20:33  

Отключить всю рекламу на сайте

    Дорогой пользователь! Огромная просьба, поблагодарите релизера, оцените раздачу и оставьте свои комментарий, если Вы скачали Юля Шереметьева и группа Леди - Выступление в Москве через торрент бесплатно!
    Комментировать посты могут только пользователи прошедшие не сложную регистрацию
    Показать сообщения:    

    Юля Шереметьева и группа Леди - Выступление в Москве через торрент
    Скачать бесплатно Юля Шереметьева и группа Леди - Выступление в Москве
    Юля Шереметьева и группа Леди - Выступление в Москве скачать торрент
    Юля Шереметьева и группа Леди - Выступление в Москве смотреть онлайн
    Cкачать фильм Юля Шереметьева и группа Леди - Выступление в Москве бесплатно
    Юля Шереметьева и группа Леди - Выступление в Москве скачать торрент в хорошем качестве
    Юля Шереметьева и группа Леди - Выступление в Москве смотреть онлайн бесплатно в хорошем качестве


    Вы не можете начинать темы
    Вы не можете отвечать на сообщения
    Вы не можете редактировать свои сообщения
    Вы не можете удалять свои сообщения
    Вы не можете голосовать в опросах
    Вы не можете прикреплять файлы к сообщениям
    Вы можете скачивать файлы