Ссылка на приватное зеркало нашего сайта всего за 1$. Внимание количество ограничено!!!

2 сезон

iTunes

1 сезон

1

2 сезон

2 сезон

iTunes

1 сезон

RePack

30

Новинка

ВАЖНО

ИГРА 18+

pack

RePack

MK11
pack

Забери бонус

RePack

jed

!!Акция!!

Alien_Rage

RePack

fifa19

RePack

Assassins Creed: Odyssey

RePack

NEED FOR SPEED™ PAYBACK

4 сезон

9 сезон

Бесстыжие 9 сезон

Все сериалы

все сериалы на PB.wtf

RePack

FAR CRY 5
  

Лемони Сникет: 33 несчастья / A Series of Unfortunate Events / Сезон: 2 / Серия: 1-7 из 7 (Бэрри Зонненфельд, Марк Палански, Бо Уэлш) [2019, Драма, приключения, семейный, WEBRip 1080p] [MVO] (Jaskier) pb.wtf

Лемони Сникет: 33 несчастья через торрент pb.wtf

Размер: 27.83 GB | Добавлен: 1 год 10 мес. назад | Торрент скачан:3 раза
Скачать  

14-01-2019 18:37 Лемони Сникет: 33 несчастья Скачать торрент  



Лемони Сникет: 33 несчастья | A Series of Unfortunate Events

• Год выпуска: 2019
• Страна: США
• Жанр: Драма, приключения, семейный
• Продолжительность: ~ 00:43:00
• Перевод: Профессиональный (многоголосый закадровый) | Jaskier
• Режиссёр: Бэрри Зонненфельд, Марк Палански, Бо Уэлш
• В ролях: Нил Патрик Харрис, Усман Элли, Мэттью Кардаропле, Джон ДеСантис, Луи Хайнс, Малина Вайсман, Сара Каннинг, Патрик Китинг, Кэтрин О’Хара, Элфри Вудард и др.
• Описание: В центре внимания сериала - большая семья, которая пытается прийти в себя после страшного пожара, который разрушил их дом. Семейство Бодлер остается на улице. Дети Вайолет, Солнышко и Клаус потеряли своих родителей в этой бушующей стихии. Ребята отправляются к графу Олафу на попечение. Тот принимает детей, но при этом очень хочет захватить в свои владения все то, что ранее им принадлежало! Дети же всячески пытаются найти тех, кто их защитит, считая, что Олаф не просто их опекун, а настоящий тиран, который мечтает о смерти ребят. Конечно же, детей никто не слушает. Однако все же находятся те, кто готов помочь!

• Качество: WEBRip 1080p
• Формат: MKV
• Видео: x264, ~ 10400 kbps | 1920x960 (2,000), 24 fps
• Аудио #1: AC3 | 48.0 KHz | 6 ch | 384 kbps - Rus
• Аудио #2: AC3 | 48.0 KHz | 6 ch | 384 kbps - Eng
• Субтитры: отсутствуют
Перевод и озвучка Jaskier
Общее
Уникальный идентификатор : 218902537773167433561369103587477021100 (0xA4AF1861A58CEA96901CCD4A06A7E1AC)
Полное имя : G:\Загрузки\A Series of Unfortunate Events. Season 3 (WEBRip l 1080p l Jaskier)\A.Series.of.Unfortunate.Events.S03E01.1080p.WEBRip.DD5.1.x264-Jaskier.mkv
Формат : Matroska
Версия формата : Version 2
Размер файла : 3,43 Гбайт
Продолжительность : 43 м. 0 с.
Общий поток : 11,4 Мбит/сек
Дата кодирования : UTC 2019-01-14 13:13:10
Программа кодирования : mkvmerge v7.8.0 ('River Man') 32bit built on Apr 3 2015 12:11:22
Библиотека кодирования : libebml v1.3.1 + libmatroska v1.4.2

Видео
Идентификатор : 1
Формат : AVC
Формат/Информация : Advanced Video Codec
Профиль формата : High@L4.1
Настройки формата : CABAC / 4 Ref Frames
Параметр CABAC формата : Да
Параметр RefFrames формата : 4 кадра
Идентификатор кодека : V_MPEG4/ISO/AVC
Продолжительность : 43 м. 0 с.
Битрейт : 10,4 Мбит/сек
Ширина : 1920 пикселей
Высота : 960 пикселей
Соотношение сторон : 2,000
Режим частоты кадров : Постоянный
Частота кадров : 24,000 кадра/сек
Цветовое пространство : YUV
Субдискретизация насыщенности : 4:2:0
Битовая глубина : 8 бит
Тип развёртки : Прогрессивная
Бит/(Пиксели*Кадры) : 0.236
Размер потока : 3,13 Гбайт (91%)
Библиотека кодирования : x264 core 157 r2935+3 (master: 545de2f / tmod: 0f48dd4) [X86_64]
Настройки программы : cabac=1 / ref=4 / deblock=1:-3:-3 / analyse=0x3:0x133 / me=umh / subme=11 / psy=1 / psy_rd=1.05:0.15 / mixed_ref=1 / me_range=48 / chroma_me=1 / trellis=2 / 8x8dct=1 / cqm=0 / deadzone=6,6 / fast_pskip=0 / chroma_qp_offset=-3 / threads=30 / lookahead_threads=7 / sliced_threads=0 / nr=0 / decimate=0 / interlaced=0 / bluray_compat=0 / constrained_intra=0 / bframes=10 / b_pyramid=2 / b_adapt=2 / b_bias=0 / direct=3 / weightb=1 / open_gop=0 / weightp=2 / keyint=250 / keyint_min=24 / scenecut=40 / intra_refresh=0 / rc_lookahead=60 / rc=crf / mbtree=0 / crf=17.0 / qcomp=0.70 / qpmin=0 / qpmax=69 / qpstep=4 / vbv_maxrate=62500 / vbv_bufsize=78125 / crf_max=0.0 / nal_hrd=none / filler=0 / ip_ratio=1.25 / pb_ratio=1.20 / aq=3:0.70
Язык : English
Default : Да
Forced : Нет

Аудио #1
Идентификатор : 2
Формат : AC-3
Формат/Информация : Audio Coding 3
Коммерческое название : Dolby Digital
Идентификатор кодека : A_AC3
Продолжительность : 43 м. 0 с.
Вид битрейта : Постоянный
Битрейт : 384 Кбит/сек
Каналы : 6 каналов
Channel layout : L R C LFE Ls Rs
Частота : 48,0 КГц
Частота кадров : 31,250 кадров/сек (1536 SPF)
Битовая глубина : 16 бит
Метод сжатия : С потерями
Размер потока : 118 Мбайт (3%)
Заголовок : Jaskier
Язык : Russian
ServiceKind/String : Complete Main
Default : Да
Forced : Нет

Аудио #2
Идентификатор : 3
Формат : AC-3
Формат/Информация : Audio Coding 3
Коммерческое название : Dolby Digital
Идентификатор кодека : A_AC3
Продолжительность : 43 м. 0 с.
Вид битрейта : Постоянный
Битрейт : 384 Кбит/сек
Каналы : 6 каналов
Channel layout : L R C LFE Ls Rs
Частота : 48,0 КГц
Частота кадров : 31,250 кадров/сек (1536 SPF)
Битовая глубина : 16 бит
Метод сжатия : С потерями
Размер потока : 118 Мбайт (3%)
Язык : English
ServiceKind/String : Complete Main
Default : Нет
Forced : Нет
скриншот  скриншот  скриншот  
pb.wtf



Скачать Лемони Сникет: 33 несчастья через торрент https://i110.fastpic.ru/big/2019/0114/80/3543c4dc474052f60a377fe4f6c8e380.png Скачать фильм Лемони Сникет: 33 несчастья через торрент бесплантно в хорошем качестве Описание: В центре внимания сериала - большая семья, которая пытается прийти в себя после страшного пожара, который разрушил их дом. ... 10 10 1
Торрент: Зарегистрирован [2019-01-14 18:37] · скачан: 3 раз
Статус: √ проверено
Размер: 27.83 GB
Как cкачать? Как скачать Лемони Сникет: 33 несчастья через торрент | qTorrent

% Раздел Тема Автор DL S | L
Зарубежные сериалы [ 4.01 GB ] Лемони Сникет: 33 несчастья / A Series of Unfortunate Events / Сезон: 2 / Серия: 1-7 из 7 [2019 WEBRip] [MVO] killermax2013 Скачать
1 | 0

28-11-2019 20:33  

Отключить всю рекламу на сайте

    Дорогой пользователь! Огромная просьба, поблагодарите релизера, оцените раздачу и оставьте свои комментарий, если Вы скачали Лемони Сникет: 33 несчастья через торрент бесплатно! Внесите свою лепту в развитие PiratBit!
    Комментировать посты могут только пользователи прошедшие не сложную регистрацию
    Показать сообщения:    

    Лемони Сникет: 33 несчастья через торрент
    Скачать бесплатно Лемони Сникет: 33 несчастья
    Лемони Сникет: 33 несчастья скачать торрент
    Лемони Сникет: 33 несчастья смотреть онлайн
    Cкачать фильм Лемони Сникет: 33 несчастья бесплатно
    Лемони Сникет: 33 несчастья скачать торрент в хорошем качестве
    Лемони Сникет: 33 несчастья смотреть онлайн бесплатно в хорошем качестве


    Вы не можете начинать темы
    Вы не можете отвечать на сообщения
    Вы не можете редактировать свои сообщения
    Вы не можете удалять свои сообщения
    Вы не можете голосовать в опросах
    Вы не можете прикреплять файлы к сообщениям
    Вы можете скачивать файлы