новый адрес
Ссылка на приватное зеркало всего за 1$. Внимание количество ограничено!!!

iTunes

1+1

iTunes

мы

iTunes

1

iTunes

Чернобыль

iTunes

Ральф против интернета

Лицензия

ПШазам

Лицензия

Оно 2

Лицензия

30
pack

Вам бонус

ВАЖНО

!!Акция!!

Alien_RageХит недели

RePack

Resident Evil 21

ИГРА 18+

pack

RePack

jed

!!Акция!!

Alien_Rage

RePack

fifa19

RePack

Assassins Creed: Odyssey

RePack

NEED FOR SPEED™ PAYBACK

3 сезон

9 сезон

Бесстыжие 9 сезон

Все сериалы

все сериалы на PB.wtf

RePack

FAR CRY 5
Ребята, катастрофически не хватает 1900р. для оплаты серверов за Октябрь (всвязи с блокировками трафик упал в 3 раза), 1-2р., выручайте.
  

Пять вечеров (Никита Михалков) [1978 г., Мелодрама, Драма, Советское кино, HDTV 1080i] pb.wtf

Пять вечеров через торрент pb.wtf

Размер: 4.67 GB | Добавлен: 10 мес. назад | Торрент скачан:10 раз
Скачать  

14-01-2019 19:55 Пять вечеров Скачать торрент  

Пять вечеров
Год выпуска: 1978
Страна: СССР
Жанр: Мелодрама, Драма, Советское кино
Продолжительность: 01:37:41
Субтитры: Отсутствуют

Режиссер: Никита Михалков



В ролях: Людмила Гурченко, Станислав Любшин, Валентина Теличкина, Лариса Кузнецова, Игорь Нефедов, Александр Адабашьян, Нина Тер-Осипян, Н. Канарский, С. Лобаков, Ольга Николаева...

Описание: Действие фильма происходит в конце пятидесятых годов прошлого века. Александр Ильин, работающий шофером грузовика в Воркуте, приезжает в командировку в Москву, где случайно встречается с Тамарой Васильевной, с которой давно не виделся. Они познакомились восемнадцать лет назад, он снимал у нее комнату, когда учился в технологическом институте, их разлучила война.Теперь Ильин и Тамара Васильевна встретились вновь, и любовь вспыхнула с новой силой…

Качество: HDTV 1080i
Формат: MPEG-TS
Видео кодек: AVC
Аудио кодек: AC3
Видео: AVC, 1920x1080 , 25.0fps, 5882 Kbps
Аудио#1: MP2 , 2 ch , 48 kHz , 224 kbps
Аудио#2: AC3 , 6 ch , 48 kHz , 384 kbps
скриншот   скриншот   скриншот   скриншот  

Общее
Идентификатор : 16 (0x10)
Полное имя : Pyat vecherov_HD.ts
Формат : MPEG-TS
Размер файла : 4,67 Гбайт
Продолжительность : 1 ч. 37 м.
Режим общего битрейта : Переменный
Общий поток : 6834 Кбит/сек

Видео
Идентификатор : 1902 (0x76E)
Идентификатор меню : 92 (0x5C)
Формат : AVC
Формат/Информация : Advanced Video Codec
Профиль формата : High@L4
Настройки формата : CABAC / 3 Ref Frames
Параметр CABAC формата : Да
Параметр RefFrames формата : 3 кадра
Параметр GOP формата : M=4, N=32
Идентификатор кодека : 27
Продолжительность : 1 ч. 37 м.
Битрейт : 5882 Кбит/сек
Ширина : 1920 пикселей
Высота : 1080 пикселей
Соотношение сторон : 16:9
Частота кадров : 25,000 кадров/сек
Стандарт вещания : PAL
Цветовое пространство : YUV
Субдискретизация насыщенности : 4:2:0
Битовая глубина : 8 бит
Тип развёртки : Чересстрочная
Метод сохранения типа развёртки : Раздельные поля
Порядок развёртки : Верхнее поле первое
Бит/(Пиксели*Кадры) : 0.113
Размер потока : 4,01 Гбайт (86%)
Цветовой диапазон : Limited
Основные цвета : BT.709
Характеристики трансфера : BT.709
Коэффициенты матрицы : BT.709

Аудио #1
Идентификатор : 2902 (0xB56)
Идентификатор меню : 92 (0x5C)
Формат : MPEG Audio
Версия формата : Version 1
Профиль формата : Layer 2
Идентификатор кодека : 4
Продолжительность : 1 ч. 37 м.
Вид битрейта : Постоянный
Битрейт : 224 Кбит/сек
Каналы : 2 канала
Частота : 48,0 КГц
Метод сжатия : С потерями
Задержка видео : 44 мс.
Размер потока : 157 Мбайт (3%)
Язык : std
Язык, дополнительно : Clean effects

Аудио #2
Идентификатор : 3902 (0xF3E)
Идентификатор меню : 92 (0x5C)
Формат : AC-3
Формат/Информация : Audio Coding 3
Параметр Endianness формата : Big
Идентификатор кодека : 6
Продолжительность : 1 ч. 37 м.
Вид битрейта : Постоянный
Битрейт : 384 Кбит/сек
Каналы : 6 каналов
Расположение каналов : Front: L C R, Side: L R, LFE
Частота : 48,0 КГц
Частота кадров : 31,250 кадров/сек (1536 SPF)
Битовая глубина : 16 бит
Метод сжатия : С потерями
Задержка видео : 29 мс.
Размер потока : 268 Мбайт (6%)
Язык : std
Язык, дополнительно : Clean effects
ServiceKind : Complete Main

Прочее #1
Идентификатор : 33 (0x21)-100
Идентификатор меню : 92 (0x5C)
Формат : Teletext

Прочее #2
Идентификатор : 33 (0x21)-888
Идентификатор меню : 92 (0x5C)
Формат : Teletext
Язык, дополнительно : Additional information page

pb.wtf



Скачать Пять вечеров через торрент http://pic1.kartinco.top/images/12/pe2ab.jpg Скачать фильм Пять вечеров через торрент бесплантно в хорошем качестве Описание: Действие фильма происходит в конце пятидесятых годов прошлого века. Александр Ильин, работающий шофером грузовика в Воркуте, ... 10 10 1
Торрент: Зарегистрирован [2019-01-14 19:55] · скачан: 10 раз
Статус: √ проверено
Размер: 4.67 GB
Как cкачать? Как скачать Пять вечеров через торрент | qTorrent

% Раздел Тема Автор DL S | L
Фантастика [ 416 MB ] Коллектив авторов - Пять вечеров 3. Магия [Сборник] [Олег Булдаков 2017 192 kbps MP3] bober100 Скачать
1 | 0
Порно фильмы без сюжета [ 1.36 GB ] Сумасшедшая Секс Вечеринка:Пять Цыпочек Один Член Нет Проблем! / Mad Sex Party:Five Chicks One Dick No Problem! [2011 All Sex Orgy DVDRip] Shmel Скачать
1 | 0
    Дорогой пользователь! Огромная просьба, поблагодарите релизера, оцените раздачу и оставьте свои комментарий, если Вы скачали Пять вечеров через торрент бесплатно! Внесите свою лепту в развитие PiratBit!
    Комментировать посты могут только пользователи прошедшие не сложную регистрацию
    Показать сообщения:    

    Пять вечеров через торрент
    Скачать бесплатно Пять вечеров
    Пять вечеров скачать торрент
    Пять вечеров смотреть онлайн
    Cкачать фильм Пять вечеров бесплатно
    Пять вечеров скачать торрент в хорошем качестве
    Пять вечеров смотреть онлайн бесплатно в хорошем качестве


    Вы не можете начинать темы
    Вы не можете отвечать на сообщения
    Вы не можете редактировать свои сообщения
    Вы не можете удалять свои сообщения
    Вы не можете голосовать в опросах
    Вы не можете прикреплять файлы к сообщениям
    Вы можете скачивать файлы