новый адрес
Ссылка на приватное зеркало всего за 1$. Внимание количество ограничено!!!

iTunes

1+1

iTunes

мы

WEB-DL

1

iTunes

Чернобыль

iTunes

Ральф против интернета

Лицензия

ПШазам

Лицензия

Оно 2

Лицензия

30
pack

Вам бонус

ВАЖНО

!!Акция!!

Alien_RageХит недели

RePack

Resident Evil 21

ИГРА 18+

pack

RePack

jed

!!Акция!!

Alien_Rage

RePack

fifa19

RePack

Assassins Creed: Odyssey

RePack

NEED FOR SPEED™ PAYBACK

3 сезон

9 сезон

Бесстыжие 9 сезон

Все сериалы

все сериалы на PB.wtf

RePack

FAR CRY 5
Ребята, катастрофически не хватает 1900р. для оплаты серверов за Октябрь (всвязи с блокировками трафик упал в 3 раза), 1-2р., выручайте.
  

Хантер Киллер / Hunter Killer (Донован Марш) [2018, боевик, триллер, WEB-DLRip-AVC] DUB [iTunes] - ExKinoRay pb.wtf

Хантер Киллер через торрент pb.wtf

Раздают: 4 [ 0 KB/s ]
Размер: 1.45 GB | Добавлен: 10 мес. назад | Торрент скачан:1006 раз
Скачать  

15-01-2019 01:44 Хантер Киллер Скачать торрент  

Информация о фильме
Название: Хантер Киллер
Оригинальное название: Hunter Killer
Год выпуска: 2018
Жанр: Боевик, триллер
Режиссер: Донован Марш
В ролях: Джерард Батлер, Гэри Олдман, Коммон, Зейн Холц, Микаэл Нюквист, Тоби Стивенс, Линда Карделлини, Кори Джонсон, Адам Джеймс, Генри Гудман, Колин Стинтон, Александр Дьяченко, Михаил Горевой, Юрий Колокольников

Описание:
Американская атакующая субмарина «Хантер Киллер» вместе с подразделением Военно-Морских сил США вступает в крайне рискованную боевую авантюру по спасению мира от катастрофы. Когда время на исходе и каждая минута на счету, элитной команде придется совершить невозможное, чтобы предотвратить конфликт мирового масштаба.

rating

Страна: США
Студия: Hunter Killer Productions, G-BASE, Hishow Entertainment
Продолжительность: 02:01:20
Перевод: Дублированный | iTunes

Формат: MKV
Качество: WEB-DLRip-AVC
Видео: 720x298 (2.40:1), 23.976 fps, MPEG-4 AVC 1323 kbps avg, 0.257 bit/pixel
Аудио: 48 kHz, AC3 Dolby Digital, 3/2 (L,C,R,l,r) + LFE ch, ~384 kbps | iTunes
General
Unique ID : 175779582528261343870841716438330356596 (0x843DEA897B5AB314B1592D1B6781B374)
Complete name : D:\Hunter Killer.2018.WEB-DLRip.AVC.ExKinoRay.mkv
Format : Matroska
Format version : Version 2
File size : 1.45 GiB
Duration : 2 h 1 min
Overall bit rate : 1 707 kb/s
Movie name : Hunter Killer 2018 from ExKinoRay
Encoded date : UTC 2019-01-15 00:48:56
Writing application : mkvmerge v5.6.0 ('Kenya Kane') built on May 27 2012 16:44:04
Writing library : libebml v1.2.3 + libmatroska v1.3.0

Video
ID : 1
Format : AVC
Format/Info : Advanced Video Codec
Format profile : High@L4.1
Format settings, CABAC : Yes
Format settings, ReFrames : 11 frames
Codec ID : V_MPEG4/ISO/AVC
Duration : 2 h 1 min
Bit rate : 1 323 kb/s
Width : 720 pixels
Height : 298 pixels
Display aspect ratio : 2.40:1
Frame rate mode : Constant
Frame rate : 23.976 (24000/1001) FPS
Original frame rate : 23.976 (23976/1000) FPS
Color space : YUV
Chroma subsampling : 4:2:0
Bit depth : 8 bits
Scan type : Progressive
Bits/(Pixel*Frame) : 0.257
Stream size : 1.09 GiB (76%)
Title : Enigma
Writing library : x264 core 152 r2851 ba24899
Encoding settings : cabac=1 / ref=11 / deblock=1:-2:-2 / analyse=0x3:0x113 / me=umh / subme=10 / psy=1 / psy_rd=1.05:0.10 / mixed_ref=1 / me_range=32 / chroma_me=1 / trellis=2 / 8x8dct=1 / cqm=0 / deadzone=21,11 / fast_pskip=0 / chroma_qp_offset=-3 / threads=9 / lookahead_threads=1 / sliced_threads=0 / nr=0 / decimate=0 / interlaced=0 / bluray_compat=0 / constrained_intra=0 / bframes=9 / b_pyramid=2 / b_adapt=2 / b_bias=0 / direct=3 / weightb=1 / open_gop=0 / weightp=2 / keyint=240 / keyint_min=23 / scenecut=40 / intra_refresh=0 / rc=2pass / mbtree=0 / bitrate=1323 / ratetol=1.0 / qcomp=0.60 / qpmin=0 / qpmax=51 / qpstep=4 / cplxblur=20.0 / qblur=0.5 / ip_ratio=1.40 / pb_ratio=1.30 / aq=1:1.00
Default : Yes
Forced : No
Color range : Limited
Color primaries : BT.709
Transfer characteristics : BT.709
Matrix coefficients : BT.709

Audio
ID : 2
Format : AC-3
Format/Info : Audio Coding 3
Mode extension : CM (complete main)
Format settings, Endianness : Big
Codec ID : A_AC3
Duration : 2 h 1 min
Bit rate mode : Constant
Bit rate : 384 kb/s
Channel(s) : 6 channels
Channel positions : Front: L C R, Side: L R, LFE
Sampling rate : 48.0 kHz
Frame rate : 31.250 FPS (1536 spf)
Compression mode : Lossy
Stream size : 333 MiB (22%)
Title : iTunes
Language : Russian
Default : Yes
Forced : No

Menu
00:00:00.000 : en:1
00:06:00.000 : en:2
00:16:27.000 : en:3
00:26:58.000 : en:4
00:36:10.000 : en:5
00:46:10.000 : en:6
00:55:28.000 : en:7
01:05:52.000 : en:8
01:16:55.000 : en:9
01:27:06.000 : en:10
01:37:06.000 : en:11
01:47:03.000 : en:12
01:51:58.000 : en:13
Релиз от:

Автор релиза: pb.wtf



Скачать Хантер Киллер через торрент https://d.radikal.ru/d26/1901/ca/8c67278206bb.png Скачать фильм Хантер Киллер через торрент бесплантно в хорошем качестве Описание: Американская атакующая субмарина «Хантер Киллер» вместе с подразделением Военно-Морских сил США вступает в крайне рискованную ... 9.7 10 22
Info! Золотая раздача, скачанное не засчитывается.
Торрент: Зарегистрирован [2019-01-15 01:44] · скачан: 1 006 раз
Статус: √ проверено
Размер: 1.45 GB
Как cкачать? Как скачать Хантер Киллер через торрент | qTorrent

% Раздел Тема Автор DL S | L
Фильмы 2018 [DVDrip, WEB-DLRip, HDrip] (DUB, MVO) [ 1.45 GB ] Хантер Киллер / Hunter Killer [2018 BDRip-AVC] DUB [] - ExKinoRay Enigma2010 Скачать
11 | 1

28-11-2019 20:33  

Отключить всю рекламу на сайте

21-01-2019 18:25 Хантер Киллер Скачать торрент  

назовем это
4 рембо и президент России или "форсаж" на подводной лодке .
Приказ - "даже не пердеть" выглядит смешно, а показывать направление+ скорость и препятствия- жестами , че у них ментальная связь, они потерянные близнецы?

Батлер походу никак не отойдет от законопослушного, а Коммон в очках - блекстар и Бондарчук в одном лице)

но снято красиво, а музон походу всем лабает Йоханн Йоханнссон, еще немного и секарио.
Жижикин как всегда без эмоций "скала" мужик)))pb.wtf



23-01-2019 05:03 Хантер Киллер Скачать торрент  

MalekUA писал(а):

назовем это
4 рембо и президент России или "форсаж" на подводной лодке .
Приказ - "даже не пердеть" выглядит смешно, а показывать направление+ скорость и препятствия- жестами , че у них ментальная связь, они потерянные близнецы?

Батлер походу никак не отойдет от законопослушного, а Коммон в очках - блекстар и Бондарчук в одном лице)

но снято красиво, а музон походу всем лабает Йоханн Йоханнссон, еще немного и секарио.
Жижикин как всегда без эмоций "скала" мужик)))

а что там Жижикин снимается ? wonderpb.wtf



24-01-2019 16:37 Хантер Киллер Скачать торрент  

Почему американцы всегда снимают фильмы про то как они спасают человечество, предотвращают войны? Почему бы не снять правду как они сеют хаос по всему миру, развязывают гражданские войны и сами вторгаются в страны режим которых им не подчиняется.pb.wtf



24-01-2019 17:08 Хантер Киллер Скачать торрент  

migelito86 писал(а):

Почему американцы всегда снимают фильмы про то как они спасают человечество, предотвращают войны? Почему бы не снять правду как они сеют хаос по всему миру, развязывают гражданские войны и сами вторгаются в страны режим которых им не подчиняется.

Потому что историю пишут победители.pb.wtf



24-01-2019 18:27 Хантер Киллер Скачать торрент  

MalekUA писал(а):

назовем это
4 рембо и президент России или "форсаж" на подводной лодке .
Приказ - "даже не пердеть" выглядит смешно, а показывать направление+ скорость и препятствия- жестами , че у них ментальная связь, они потерянные близнецы?

Батлер походу никак не отойдет от законопослушного, а Коммон в очках - блекстар и Бондарчук в одном лице)

но снято красиво, а музон походу всем лабает Йоханн Йоханнссон, еще немного и секарио.
Жижикин как всегда без эмоций "скала" мужик)))

Почему лайкнуть нельзя??? Чувак, огонь отзыв!pb.wtf



27-01-2019 11:27 Хантер Киллер Скачать торрент  

Бредятина...Ляп на ляпе...Очередная приторная пропагандистская агитка...Тьфу, пля pb.wtf



08-02-2019 00:11 Хантер Киллер Скачать торрент  

Еще давно, увидав Батлера, подумалось - наш чувак. Ну не мог он зашкварить Рассею-матушку. Потащил вопрос как Бог, порешал и разрулил все и вся в позитив. В итоге мир-дружба-жвачка, за что очередной поклон нашим американским партнерам. Пока Джерард снимается, за мирные воды и небо спокоен. Ну а Олдман в хронической ломке все истерит, пора бы успокоиться. Спасибо режиссеру за почти документальный фильм. А мы все скромничаем, пора бы и Федору Б. с Митяем спасти всю Северную Америку со всеми президентами и их семьями от того же Олдмана, а чего мелочиться.pb.wtf



    Дорогой пользователь! Огромная просьба, поблагодарите релизера, оцените раздачу и оставьте свои комментарий, если Вы скачали Хантер Киллер через торрент бесплатно! Внесите свою лепту в развитие PiratBit!
    Комментировать посты могут только пользователи прошедшие не сложную регистрацию
    Показать сообщения:    

    Хантер Киллер через торрент
    Скачать бесплатно Хантер Киллер
    Хантер Киллер скачать торрент
    Хантер Киллер смотреть онлайн
    Cкачать фильм Хантер Киллер бесплатно
    Хантер Киллер скачать торрент в хорошем качестве
    Хантер Киллер смотреть онлайн бесплатно в хорошем качестве


    Вы не можете начинать темы
    Вы не можете отвечать на сообщения
    Вы не можете редактировать свои сообщения
    Вы не можете удалять свои сообщения
    Вы не можете голосовать в опросах
    Вы не можете прикреплять файлы к сообщениям
    Вы можете скачивать файлы