Ссылка на приватное зеркало нашего сайта всего за 1$. Внимание количество ограничено!!!

2 сезон

iTunes

1 сезон

1

2 сезон

2 сезон

iTunes

1 сезон

RePack

30

Новинка

ВАЖНО

ИГРА 18+

pack

RePack

MK11
pack

Забери бонус

RePack

jed

!!Акция!!

Alien_Rage

RePack

fifa19

RePack

Assassins Creed: Odyssey

RePack

NEED FOR SPEED™ PAYBACK

4 сезон

9 сезон

Бесстыжие 9 сезон

Все сериалы

все сериалы на PB.wtf

RePack

FAR CRY 5
  

Мне плохо / I Feel Bad / Сезон: 1 / Серии: 1-13 из 13 (Джули Энн Робинсон) [2018, комедия, WEB-DL 720p, HDTV 720p] MVO [Jaskier] pb.wtf

Мне плохо через торрент pb.wtf

Размер: 7.26 GB | Добавлен: 1 год 10 мес. назад | Торрент скачан:1 раз
Скачать  

15-01-2019 05:09 Мне плохо Скачать торрент  

Мне плохо / I Feel BadГод выпуска: 2018
Страна: США
Жанр: комедия
Продолжительность: 00:20:00
Перевод: Профессиональный (многоголосый) | Jaskier
Субтитры: отсутствуют

Режиссер: Джули Энн Робинсон

rating

В ролях:

Сарайю Рао, Пол Адельштейн, Мадхур Джаффри, Брайан Джордж, Лили Роуз Сильвер, Каллэн Фаррис, Эйслинг Беа, Джеймс Бакли, Зак Черри, Джонни Пембертон

Описание:

Эмет отчаянно старается быть идеальной матерью, женой, начальницей, другом и дочерью. Но, как и у большинства людей, у нее это далеко не всегда получается. И тогда ей становится неловко. Неловко, когда она видит эротический сон с посторонним мужчиной. Неловко, когда притворяется, что Лили и Луи — не ее дети, если они ужасно ведут себя на публике. Неловко, когда приходится привлекать домашний персонал к решению своих личных проблем. Но хуже всего героиня сериала «Мне неловко» чувствует себя в те моменты, когда кто-то намекает ей, что она ужасно похожа на свою мать.

Качество: WEB-DL 720p, HDTV 720p
Формат: MKV

Видео: 1280x720 (16:9) | X264 | ~3213 kbps | 23.976 fps
Аудио#1: AC3, 48,0 КГц, 6 ch, 384 kbps - [RUS]
Аудио#2: AC3, 48,0 КГц, 6 ch, 384 kbps - [ENG]
скриншот  скриншот  скриншот  

Общее
Уникальный идентификатор : 297190701137490714059427358660537674544 (0xDF94D8D85C8558F20E0C82921154EB30)
Полное имя : D:\I.Feel.Bad Season 1 (WEB-DL l 720p l Jaskier)\I.Feel.Bad.S01E01.WEB-DL.720p.Jaskier.mkv
Формат : Matroska
Версия формата : Version 4 / Version 2
Размер файла : 614 Мбайт
Продолжительность : 21 м. 32 с.
Общий поток : 3983 Кбит/сек
Дата кодирования : UTC 2018-09-29 20:35:50
Программа кодирования : mkvmerge v19.0.0 ('Brave Captain') 64-bit
Библиотека кодирования : libebml v1.3.5 + libmatroska v1.4.8

Видео
Идентификатор : 1
Формат : AVC
Формат/Информация : Advanced Video Codec
Профиль формата : High@L3.1
Параметр CABAC формата : Да
Параметр RefFrames формата : 5 кадров
Идентификатор кодека : V_MPEG4/ISO/AVC
Продолжительность : 21 м. 32 с.
Битрейт : 3136 Кбит/сек
Ширина : 1280 пикселей
Высота : 720 пикселей
Соотношение сторон : 16:9
Режим частоты кадров : Постоянный
Частота кадров : 23,976 (24000/1001) кадра/сек
Цветовое пространство : YUV
Субдискретизация насыщенности : 4:2:0
Битовая глубина : 8 бит
Тип развёртки : Прогрессивная
Бит/(Пиксели*Кадры) : 0.142
Размер потока : 483 Мбайт (79%)
Default : Да
Forced : Нет
Цветовой диапазон : Limited
Основные цвета : BT.709
Характеристики трансфера : BT.709
Коэффициенты матрицы : BT.709

Аудио #1
Идентификатор : 2
Формат : AC-3
Формат/Информация : Audio Coding 3
Расширение режима : CM (complete main)
Параметр Endianness формата : Big
Идентификатор кодека : A_AC3
Продолжительность : 21 м. 32 с.
Вид битрейта : Постоянный
Битрейт : 384 Кбит/сек
Каналы : 6 каналов
Расположение каналов : Front: L C R, Side: L R, LFE
Частота : 48,0 КГц
Частота кадров : 31,250 кадров/сек (1536 spf)
Метод сжатия : С потерями
Размер потока : 59,2 Мбайт (10%)
Язык : Russian
Default : Да
Forced : Нет

Аудио #2
Идентификатор : 3
Формат : AC-3
Формат/Информация : Audio Coding 3
Расширение режима : CM (complete main)
Параметр Endianness формата : Big
Идентификатор кодека : A_AC3
Продолжительность : 21 м. 32 с.
Вид битрейта : Постоянный
Битрейт : 384 Кбит/сек
Каналы : 6 каналов
Расположение каналов : Front: L C R, Side: L R, LFE
Частота : 48,0 КГц
Частота кадров : 31,250 кадров/сек (1536 spf)
Метод сжатия : С потерями
Размер потока : 59,2 Мбайт (10%)
Язык : English
Default : Нет
Forced : Нет

pb.wtf



Скачать Мне плохо через торрент http://i89.fastpic.ru/big/2018/1007/a4/693540068774351326cc5f1e18e38fa4.png Скачать фильм Мне плохо через торрент бесплантно в хорошем качестве Описание: Эмет отчаянно старается быть идеальной матерью, женой, начальницей, другом и дочерью. Но, как и у большинства людей, у нее это ... 10 10 3
Торрент: Зарегистрирован [2019-01-15 05:11] · скачан: 1 раз
Статус: √ проверено
Размер: 7.26 GB
Как cкачать? Как скачать Мне плохо через торрент | qTorrent

% Раздел Тема Автор DL S | L
Зарубежные сериалы [ 3.56 GB ] Мне плохо / I Feel Bad / Сезон: 1 / Серии: 1-13 из 13 [2018 WEB-DLRip HDTVRip] MVO [Jaskier] bober100 Скачать
1 | 0

28-11-2019 20:33  

Отключить всю рекламу на сайте

    Дорогой пользователь! Огромная просьба, поблагодарите релизера, оцените раздачу и оставьте свои комментарий, если Вы скачали Мне плохо через торрент бесплатно! Внесите свою лепту в развитие PiratBit!
    Комментировать посты могут только пользователи прошедшие не сложную регистрацию
    Показать сообщения:    

    Мне плохо через торрент
    Скачать бесплатно Мне плохо
    Мне плохо скачать торрент
    Мне плохо смотреть онлайн
    Cкачать фильм Мне плохо бесплатно
    Мне плохо скачать торрент в хорошем качестве
    Мне плохо смотреть онлайн бесплатно в хорошем качестве


    Вы не можете начинать темы
    Вы не можете отвечать на сообщения
    Вы не можете редактировать свои сообщения
    Вы не можете удалять свои сообщения
    Вы не можете голосовать в опросах
    Вы не можете прикреплять файлы к сообщениям
    Вы можете скачивать файлы