Ссылка на приватное зеркало нашего сайта всего за 1$. Внимание количество ограничено!!!

2 сезон

iTunes

1 сезон

1

2 сезон

2 сезон

iTunes

1 сезон

RePack

30

Ultimate

ВАЖНО

ИГРА 18+

pack

RePack

MK11
pack

Забери бонус

RePack

jed

!!Акция!!

Alien_Rage

RePack

fifa19

RePack

Assassins Creed: Odyssey

RePack

NEED FOR SPEED™ PAYBACK

4 сезон

9 сезон

Бесстыжие 9 сезон

Все сериалы

все сериалы на PB.wtf

RePack

FAR CRY 5
  

Первые / The First / Сезон: 1 / Серии: 1-8 из 8 (Дениз Гамзе Эргювен, Агнешка Холланд, Ариел Кляйман) [2018, фантастика, драма, HDTVRip] [MVO] (Amedia) pb.wtf

Первые через торрент pb.wtf

Размер: 4.56 GB | Добавлен: 1 год 10 мес. назад | Торрент скачан:50 раз
Скачать  

15-01-2019 06:53 Первые Скачать торрент  

Первые / The First
Год выпуска: 2018
Страна: США
Жанр: Фантастика, драма
Продолжительность: ~ 00:44:00
Перевод: Профессиональный (многоголосый закадровый) | SDI Media по заказу Amedia
Режиссёр: Дениз Гамзе Эргювен, Агнешка Холланд, Ариел Кляйман
В ролях: Шон Пенн, Рей Лукас, Брайан Франклин, Т.С. Мэтерн, Лиза Гэй Хэмилтон, Ханна Уэр, Джеймс Рэнсон, Анна Джэкоби-Херон, Одед Фер, Наташа МакЭлхоун
Описание: Действие разворачивается в недалеком будущем. Группа инженеров, ученых и астронавтов отправляется в первый пилотируемый полет на Марс с целью колонизировать Красную планету. Экспедиция, одним из участников которой является бывший астронавт НАСА Том Хаггерти, сталкивается с многочисленными трудностями, непростые времена переживают родные и близкие колонистов, оставшиеся на Земле, а также наземные специалисты.
rating

Качество: HDTVRip
Формат: AVI
Видео: XviD, 720x400, 25.000 fps, ~1500 kbps
Аудио Rus: MP3, 48 kHz, 2 ch, 128 kbps | Amedia
Аудио Eng: MP3, 48 kHz, 2 ch, 128 kbps
Субтитры: Русские (Amedia)
Общее
Полное имя : E:\The First (Season 1) HDTVRip\The.First.S01E01.Separation.HDTVRip.[Wentworth_Miller].avi
Формат : AVI
Формат/Информация : Audio Video Interleave
Размер файла : 562 Мбайт
Продолжительность : 44 м. 21 с.
Общий поток : 1771 Кбит/сек
Программа кодирования : VirtualDubMod 1.5.10.2 (build 2540/release)
Библиотека кодирования : VirtualDubMod build 2540/release

Видео
Идентификатор : 0
Формат : MPEG-4 Visual
Профиль формата : Advanced Simple@L5
Настройки формата : BVOP1
Параметр BVOP формата : 1
Параметр QPel формата : Нет
Параметр GMC формата : Без точки перехода
Параметр матрицы формата : Default (MPEG)
Идентификатор кодека : XVID
Идентификатор кодека/Подсказка : XviD
Продолжительность : 44 м. 21 с.
Битрейт : 1500 Кбит/сек
Ширина : 720 пикселей
Высота : 400 пикселей
Соотношение сторон : 16:9
Частота кадров : 25,000 кадров/сек
Цветовое пространство : YUV
Субдискретизация насыщенности : 4:2:0
Битовая глубина : 8 бит
Тип развёртки : Прогрессивная
Метод сжатия : С потерями
Бит/(Пиксели*Кадры) : 0.208
Размер потока : 476 Мбайт (85%)
Библиотека кодирования : XviD 61

Аудио #1
Идентификатор : 1
Формат : MPEG Audio
Версия формата : Version 1
Профиль формата : Layer 3
Идентификатор кодека : 55
Идентификатор кодека/Подсказка : MP3
Продолжительность : 44 м. 21 с.
Вид битрейта : Постоянный
Битрейт : 128 Кбит/сек
Каналы : 2 канала
Частота : 48,0 КГц
Частота кадров : 41,667 кадра/сек (1152 SPF)
Метод сжатия : С потерями
Размер потока : 40,6 Мбайт (7%)
Выравнивание : Соединение по промежуткам
Продолжительность промежутка : 40 мс. (1,00 видеокадр)
Время предзагрузки промежутка : 504 мс.
Библиотека кодирования : LAME3.98r
Настройки программы : -m s -V 4 -q 2 -lowpass 17 -b 128

Аудио #2
Идентификатор : 2
Формат : MPEG Audio
Версия формата : Version 1
Профиль формата : Layer 3
Настройки формата : Joint stereo / MS Stereo
Идентификатор кодека : 55
Идентификатор кодека/Подсказка : MP3
Продолжительность : 44 м. 21 с.
Вид битрейта : Постоянный
Битрейт : 128 Кбит/сек
Каналы : 2 канала
Частота : 48,0 КГц
Метод сжатия : С потерями
Размер потока : 40,6 Мбайт (7%)
Выравнивание : Соединение по промежуткам
Продолжительность промежутка : 40 мс. (1,00 видеокадр)
Время предзагрузки промежутка : 504 мс.

скриншот  скриншот  скриншот  
pb.wtf



Скачать Первые через торрент https://i6.imageban.ru/out/2018/09/16/c37a5a858e6cce868207e89d93c6e939.jpg Скачать фильм Первые через торрент бесплантно в хорошем качестве Описание: Действие разворачивается в недалеком будущем. Группа инженеров, ученых и астронавтов отправляется в первый пилотируемый полет на ... 3.5 10 2
Торрент: Зарегистрирован [2019-01-15 06:53] · скачан: 50 раз
Статус: √ проверено
Размер: 4.56 GB
Как cкачать? Как скачать Первые через торрент | qTorrent

% Раздел Тема Автор DL S | L
Зарубежные сериалы [ 2.02 GB ] Первые / The First / Сезон: 1 / Серии: 1-3 из 8 [2018 WEB-DL 720p] [DVO] killermax2013 Скачать
1 | 0
Зарубежные сериалы [ 3.05 GB ] Первые / The First / Сезон: 1 / Серии: 1-8 из 8 [2018 WEBRip] MVO [LostFilm] bober100 Скачать
1 | 0
Зарубежные сериалы [ 5.03 GB ] Первые / The First / Сезон: 1 / Серии: 1-8 из 8 [2018 WEBRip 720p] DVO [SunshineStudio] bober100 Скачать
1 | 0
Зарубежные сериалы [ 4.75 GB ] Первые / The First / Сезон: 1 / Серии: 1-8 из 8 [2018 WEBRip] DVO [SunshineStudio] bober100 Скачать
1 | 0

28-11-2019 20:33  

Отключить всю рекламу на сайте

16-01-2019 06:50 Первые Скачать торрент  

Даже не знаю, чувачки собрались лететь на Марс, а для них геройство даже на околоземную выйти. Весь первый сезон выходили..... При таком раскладе, они еще сезона 2-3 будут пыхтеть до Марса и, в последнем сезоне, героически все сгинут там, кроме одного хероя (якорь для следующего сезона......)pb.wtf



    Дорогой пользователь! Огромная просьба, поблагодарите релизера, оцените раздачу и оставьте свои комментарий, если Вы скачали Первые через торрент бесплатно! Внесите свою лепту в развитие PiratBit!
    Комментировать посты могут только пользователи прошедшие не сложную регистрацию
    Показать сообщения:    

    Первые через торрент
    Скачать бесплатно Первые
    Первые скачать торрент
    Первые смотреть онлайн
    Cкачать фильм Первые бесплатно
    Первые скачать торрент в хорошем качестве
    Первые смотреть онлайн бесплатно в хорошем качестве


    Вы не можете начинать темы
    Вы не можете отвечать на сообщения
    Вы не можете редактировать свои сообщения
    Вы не можете удалять свои сообщения
    Вы не можете голосовать в опросах
    Вы не можете прикреплять файлы к сообщениям
    Вы можете скачивать файлы