Ссылка на приватное зеркало нашего сайта всего за 1$. Внимание количество ограничено!!!

2 сезон

iTunes

1 сезон

1

2 сезон

2 сезон

iTunes

1 сезон

RePack

30

Новинка

ВАЖНО

ИГРА 18+

pack

RePack

MK11
pack

Забери бонус

RePack

jed

!!Акция!!

Alien_Rage

RePack

fifa19

RePack

Assassins Creed: Odyssey

RePack

NEED FOR SPEED™ PAYBACK

4 сезон

9 сезон

Бесстыжие 9 сезон

Все сериалы

все сериалы на PB.wtf

RePack

FAR CRY 5
  

Побег из тюрьмы Даннемора / Escape at Dannemora / Сезон: 1 / Серии: 1-7 из 7 (Бен Стиллер / Ben Stiller) [2018, Драма, WEBRip 720p] MVO [Baibako] pb.wtf

Побег из тюрьмы Даннемора через торрент pb.wtf

Размер: 8.91 GB | Добавлен: 1 год 10 мес. назад | Торрент скачан:27 раз
Скачать  

15-01-2019 08:15 Побег из тюрьмы Даннемора Скачать торрент  

Побег из тюрьмы Даннемора / Escape at Dannemora
«***»
Страна: Великобритания
Год выпуска: 2018
Жанр: драма
Продолжительность: ~ 00:57:00 серия
Перевод: Профессиональный (многоголосый, закадровый) |
Субтитры: английские (SDH)

Премьера (мир): 15 октября 2018

Режиссер: Бен Стиллер

В ролях:

Бенисио Дель Торо, Патриша Аркетт, Пол Дано, Бонни Хант, Эрик Ланж, Дэвид Морс

Описание фильма:

Основанная на реальных событиях драма от сценаристов «Рэя Донована». Ричард Матт – преступник, получивший 25 лет за убийство бизнесмена. Даже оказавшись в тюрьме строго режима Даннемора, он не опускает руки и придумывает хитроумный план побега. Громкое дело берет под свой контроль губернатор штата Нью-Йорк Эндрю Куомо, который бросает на преследование все силы штата




Качество: WEBRip 720p
Формат: MKV

Видео: AVC, 1280 x 720 (1.778), 23.976 fps, ~2218 kbps
Аудио Rus: AC-3, 48 kHz, 6 ch, 384 kbps |Baibako|
Аудио Eng: AC-3, 48 kHz, 6 ch, 384 kbps |Original|
Общее
Уникальный идентификатор : 301128826790935522065522228240443563132 (0xE28B4D6E3F3C9DB97E23716444F4DC7C)
Полное имя : E:\_Сериалы\_Сериалы\Побег из Даннеморы\Escape At Dannemora.s01.720p.WEBRip.BaibaKo\Escape At Dannemora.s01e01.720p.WEBRip.BaibaKo.mkv
Формат : Matroska
Версия формата : Version 4 / Version 2
Размер файла : 1,33 Гбайт
Продолжительность : 1 ч. 3 м.
Общий поток : 2988 Кбит/сек
Дата кодирования : UTC 2019-01-09 19:09:04
Программа кодирования : mkvmerge v30.1.0 ('Forever And More') 64-bit
Библиотека кодирования : libebml v1.3.6 + libmatroska v1.4.9

Видео
Идентификатор : 1
Формат : AVC
Формат/Информация : Advanced Video Codec
Профиль формата : High@L3.1
Настройки формата : CABAC / 5 Ref Frames
Параметр CABAC формата : Да
Параметр RefFrames формата : 5 кадров
Идентификатор кодека : V_MPEG4/ISO/AVC
Продолжительность : 1 ч. 3 м.
Битрейт : 2218 Кбит/сек
Ширина : 1280 пикселей
Высота : 720 пикселей
Соотношение сторон : 16:9
Режим частоты кадров : Постоянный
Частота кадров : 23,976 (24000/1001) кадра/сек
Цветовое пространство : YUV
Субдискретизация насыщенности : 4:2:0
Битовая глубина : 8 бит
Тип развёртки : Прогрессивная
Бит/(Пиксели*Кадры) : 0.100
Размер потока : 1009 Мбайт (74%)
Язык : English
Default : Да
Forced : Нет
Цветовой диапазон : Limited
Основные цвета : BT.709
Характеристики трансфера : BT.709
Коэффициенты матрицы : BT.709

Аудио #1
Идентификатор : 2
Формат : AC-3
Формат/Информация : Audio Coding 3
Идентификатор кодека : A_AC3
Продолжительность : 1 ч. 3 м.
Вид битрейта : Постоянный
Битрейт : 384 Кбит/сек
Каналы : 6 каналов
Расположение каналов : Front: L C R, Side: L R, LFE
Частота : 48,0 КГц
Частота кадров : 31,250 кадров/сек (1536 SPF)
Битовая глубина : 16 бит
Метод сжатия : С потерями
Размер потока : 175 Мбайт (13%)
Язык : Russian
ServiceKind/String : Complete Main
Default : Да
Forced : Нет

Аудио #2
Идентификатор : 3
Формат : AC-3
Формат/Информация : Audio Coding 3
Идентификатор кодека : A_AC3
Продолжительность : 1 ч. 3 м.
Вид битрейта : Постоянный
Битрейт : 384 Кбит/сек
Каналы : 6 каналов
Расположение каналов : Front: L C R, Side: L R, LFE
Частота : 48,0 КГц
Частота кадров : 31,250 кадров/сек (1536 SPF)
Битовая глубина : 16 бит
Метод сжатия : С потерями
Размер потока : 175 Мбайт (13%)
Язык : English
ServiceKind/String : Complete Main
Default : Нет
Forced : Нет

Текст
Идентификатор : 4
Формат : UTF-8
Идентификатор кодека : S_TEXT/UTF8
Идентификатор кодека/Информация : UTF-8 Plain Text
Продолжительность : 1 ч. 3 м.
Битрейт : 63 бит/сек
ElementCount : 1223
Размер потока : 29,3 Кбайт (0%)
Заголовок : SDH
Язык : English
Default : Нет
Forced : Нет
Раздача ведётся путём добавления новых серий; при каждом добавлении создаётся новый торрент.
Чтобы начать докачку новой серии, пользователям необходимо сделать следующее:
1. остановить скачивание,
2. удалить старый торрент у себя из клиента (старые серии удалять не надо),
3. скачать новый торрент и запустить его у себя в клиенте вместо старого, при этом указать клиенту путь в старую папку, куда и должно происходить скачивание новых серий.

Ваш клиент при этом должен произвести хеширование (проверку) старой папки (если не производит сам - помогите ему сделать это), и будет докачивать только те серии которых у вас ещё нет. Старые серии при этом не удаляются, а продолжают раздаваться!

Eсли вы уже удалили старые серии, то предотвратить повторную закачку старых серий можно, отжав галочку в соответствующих местах при запуске нового торрента. По возможности, желательно не удалять старые серии как можно дольше, чтобы релизёр не столько продолжал раздавать старые серии, а смог сконцентрироваться на новых.

Совет для тех, кто не хочет ждать перехеширования:
Создайте ещё одну папку рядом с папкой сериала (рядом, а не в ней!!!). Каждую новую серию после удачной загрузки копируйте в новую папку так чтобы ваша основная папка всегда была пуста. Когда ваш новый торрент предложит вам закачать все файлы, выберете только последнюю. Для сидирования же укажите адрес новой папки.

Как закачать отдельный файл из торрента или докачать ранее пропущенные файлы торрента!
1. Открыть торрент
2. Снять галки с тех файлов торрента, которые мы не хотим закачивать. Оставляем только на нужных нам файлах (файле).
3. Нажать О.К.

В клиенте utorrent

Инструкция

1) Открыть торрент


2) Снять галки с тех файлов торрента, которые мы не хотим закачивать:

* либо вручную, снимая с каждого файла галку( скрин №1)
* либо, нажав кнопку "Снять метки (Select None)", сняв сразу со всех файлов(скрин №2)
№1

№2

Оставляем только на нужных нам файлах (файле).

3)Нажать О.К
Приятного просмотра!!!pb.wtf



Скачать Побег из тюрьмы Даннемора через торрент https://i108.fastpic.ru/big/2019/0109/50/a2163815caf4182d71a1055ce488d750.png Скачать фильм Побег из тюрьмы Даннемора через торрент бесплантно в хорошем качестве Описание фильма:Основанная на реальных событиях драма от сценаристов «Рэя Донована». Ричард Матт – преступник, получивший 25 лет за ... 10 10 2
Торрент: Зарегистрирован [2019-01-15 08:15] · скачан: 27 раз
Статус: √ проверено
Размер: 8.91 GB
Как cкачать? Как скачать Побег из тюрьмы Даннемора через торрент | qTorrent

% Раздел Тема Автор DL S | L
Зарубежные сериалы [ 29.17 GB ] Побег из тюрьмы Даннемора / Escape at Dannemora / Сезон: 1 / Серии: 1-7 из 7 [2018 биографический WEB-DL 1080p] MVO [SDI Media / Amedia] bober100 Скачать
1 | 0
Зарубежные сериалы [ 9.57 GB ] Побег из тюрьмы Даннемора / Escape at Dannemora / Сезон: 1 / Серии: 1-7 из 7 [2018 биографический WEB-DL 720p] MVO [SDI Media / Amedia] bober100 Скачать
2 | 0
Зарубежные сериалы [ 30.08 GB ] Побег из тюрьмы Даннемора / Escape at Dannemora / Сезон: 1 / Серии: 1-7 из 7 [2018 WEB-DL 1080p] MVO [LostFilm] bober100 Скачать
1 | 0
Зарубежные сериалы [ 30.7 GB ] Побег из тюрьмы Даннемора / Escape at Dannemora / Сезон: 1 / Серии: 1-7 из 7 [2018 WEB-DL 1080p] MVO [BaibaKo] bober100 Скачать
1 | 0
Зарубежные сериалы [ 8.91 GB ] Побег из тюрьмы Даннемора / Escape at Dannemora / Сезон: 1 / Серии: 1-7 из 7 [2018 WEB-DL 720p] MVO [Jaskier] bober100 Скачать
1 | 0
Зарубежные сериалы [ 5.13 GB ] Побег из тюрьмы Даннемора / Escape at Dannemora / Сезон: 1 / Серии: 1-7 из 7 [2018 WEB-DLRip] MVO [Jaskier] bober100 Скачать
1 | 0
Зарубежные сериалы [ 5.56 GB ] Побег из тюрьмы Даннемора / Escape at Dannemora / Сезон: 1 / Серии: 1-7 из 7 [2018 WEBRip] MVO [NewStudio] bober100 Скачать
3 | 0

28-11-2019 20:33  

Отключить всю рекламу на сайте

    Дорогой пользователь! Огромная просьба, поблагодарите релизера, оцените раздачу и оставьте свои комментарий, если Вы скачали Побег из тюрьмы Даннемора через торрент бесплатно! Внесите свою лепту в развитие PiratBit!
    Комментировать посты могут только пользователи прошедшие не сложную регистрацию
    Показать сообщения:    

    Побег из тюрьмы Даннемора через торрент
    Скачать бесплатно Побег из тюрьмы Даннемора
    Побег из тюрьмы Даннемора скачать торрент
    Побег из тюрьмы Даннемора смотреть онлайн
    Cкачать фильм Побег из тюрьмы Даннемора бесплатно
    Побег из тюрьмы Даннемора скачать торрент в хорошем качестве
    Побег из тюрьмы Даннемора смотреть онлайн бесплатно в хорошем качестве


    Вы не можете начинать темы
    Вы не можете отвечать на сообщения
    Вы не можете редактировать свои сообщения
    Вы не можете удалять свои сообщения
    Вы не можете голосовать в опросах
    Вы не можете прикреплять файлы к сообщениям
    Вы можете скачивать файлы