Ссылка на приватное зеркало нашего сайта всего за 1$. Внимание количество ограничено!!!

2 сезон

iTunes

1 сезон

1

iTunes

iTunes

iTunes

1 сезон

RePack

30

ИГРА 18+

pack

ВАЖНО

!!Акция!!

Alien_RageХит недели

RePack

MK11
pack

Забери бонус

RePack

jed

!!Акция!!

Alien_Rage

RePack

fifa19

RePack

Assassins Creed: Odyssey

RePack

NEED FOR SPEED™ PAYBACK

4 сезон

9 сезон

Бесстыжие 9 сезон

Все сериалы

все сериалы на PB.wtf

RePack

FAR CRY 5
  

Агент Джонни Инглиш 3.0 / Johnny English Strikes Again (Дэвид Керр) [2018, боевик, комедия, приключения, UHD BDRemux 2160p] DUB [Лицензия] pb.wtf

Агент Джонни Инглиш 3.0 через торрент pb.wtf

Размер: 34.5 GB | Добавлен: 1 год 9 мес. назад | Торрент скачан:100 раз
Скачать  

15-01-2019 13:36 Агент Джонни Инглиш 3.0 Скачать торрент  

Агент Джонни Инглиш 3.0 / Johnny English Strikes Again Год выпуска: 2018
Страна: Великобритания, Франция, США
Жанр: боевик, комедия, приключения
Продолжительность: 01:28:33
Перевод: Дублированный | Лицензия
Субтитры: Русские (Forced, full), английские

Режиссер: Дэвид Керр

rating

В ролях:

Эмма Томпсон, Ольга Куриленко, Роуэн Эткинсон, Джейк Лэси, Бен Миллер, Миранда Хеннесси, Адам Джеймс, Пиппа Беннетт-Уорнер, Ирена Тишина, Джеймс Илс

Описание:

Когда все агенты секретной службы Её Величества внезапно выходят из строя, в игру вступает запасной вариант. Образец английского стиля и любимец роковых красоток; король безвыходных ситуаций и хранитель аналоговых традиций в цифровом мире, агент Джонни Инглиш - боль и гордость британской разведки. Этому парню есть что взбалтывать, и он взболтает не по-детски.

Качество: UHD BDRemux 2160p
Формат: MKV

Видео: 3840x2160 at 23.976 fps, MPEG-H HEVC HDR Video, 49100 kbps avg
Аудио#1: 48 kHz, DTS, 5.1, 768 Kbps | Дублированный | RUS |
Аудио#2: 48 kHz, DTS-HD MA, 7.1, 5910 Kbps | Оригинал | ENG |
скриншот  скриншот  скриншот  скриншот  скриншот  

General
Unique ID : 173979669840919663811236421633525788893 (0x82E343FD73C17143D41D99ED6CB1B0DD)
Complete name : D:Video111Johnny.English.Strikes.Again.2018.4K.BDREMUX.2160p.HDR.seleZen.mkv
Format : Matroska
Format version : Version 4
File size : 34.5 GiB
Duration : 1 h 28 min
Overall bit rate mode : Variable
Overall bit rate : 55.8 Mb/s
Movie name : Johnny English Strikes Again 2018 from селезень
Encoded date : UTC 2019-01-15 13:11:29
Writing application : mkvmerge v29.0.0 ('Like It Or Not') 64-bit
Writing library : libebml v1.3.6 + libmatroska v1.4.9

Video
ID : 1
Format : HEVC
Format/Info : High Efficiency Video Coding
Commercial name : HDR10
Format profile : Main 10@L5.1@High
Codec ID : V_MPEGH/ISO/HEVC
Duration : 1 h 28 min
Bit rate : 49.1 Mb/s
Width : 3 840 pixels
Height : 2 160 pixels
Display aspect ratio : 16:9
Frame rate mode : Constant
Frame rate : 23.976 (24000/1001) FPS
Color space : YUV
Chroma subsampling : 4:2:0 (Type 2)
Bit depth : 10 bits
Bits/(Pixel*Frame) : 0.247
Stream size : 30.4 GiB (88%)
Writing library : ATEME Titan File 3.8.16 (4.8.16.0)
Language : English
Default : Yes
Forced : No
Color range : Limited
Color primaries : BT.2020
Transfer characteristics : PQ
Matrix coefficients : BT.2020 non-constant
Mastering display color pri : Display P3
Mastering display luminance : min: 0.0050 cd/m2, max: 1000 cd/m2
Maximum Content Light Level : 1000 cd/m2
Maximum Frame-Average Light : 155 cd/m2

Audio #1
ID : 2
Format : DTS
Format/Info : Digital Theater Systems
Codec ID : A_DTS
Duration : 1 h 28 min
Bit rate mode : Constant
Bit rate : 768 kb/s
Channel(s) : 6 channels
Channel layout : C L R Ls Rs LFE
Sampling rate : 48.0 kHz
Frame rate : 93.750 FPS (512 SPF)
Bit depth : 24 bits
Compression mode : Lossy
Stream size : 486 MiB (1%)
Title : Dub [License]
Language : Russian
Default : Yes
Forced : Yes

Audio #2
ID : 3
Format : DTS XLL X
Format/Info : Digital Theater Systems
Commercial name : DTS-HD Master Audio
Codec ID : A_DTS
Duration : 1 h 28 min
Bit rate mode : Variable
Bit rate : 5 910 kb/s
Channel(s) : 8 channels
Channel(s)_Original : Object Based
Channel layout : Object Based
Sampling rate : 48.0 kHz
Frame rate : 93.750 FPS (512 SPF)
Bit depth : 24 bits
Stream size : 3.65 GiB (11%)
Title : Original
Language : English
Default : No
Forced : No

Text #1
ID : 4
Format : UTF-8
Codec ID : S_TEXT/UTF8
Codec ID/Info : UTF-8 Plain Text
Duration : 1 h 27 min
Bit rate : 0 b/s
Count of elements : 15
Stream size : 459 Bytes (0%)
Title : Forced
Language : Russian
Default : Yes
Forced : Yes

Text #2
ID : 5
Format : UTF-8
Codec ID : S_TEXT/UTF8
Codec ID/Info : UTF-8 Plain Text
Duration : 1 h 27 min
Bit rate : 69 b/s
Count of elements : 1007
Stream size : 44.4 KiB (0%)
Title : Full
Language : Russian
Default : No
Forced : No

Text #3
ID : 6
Format : UTF-8
Codec ID : S_TEXT/UTF8
Codec ID/Info : UTF-8 Plain Text
Duration : 1 h 22 min
Bit rate : 56 b/s
Count of elements : 1022
Stream size : 34.3 KiB (0%)
Title : Full
Language : English
Default : No
Forced : No

Menu
00:00:00.000 : :Глава 01
00:05:06.681 : :Глава 02
00:09:05.378 : :Глава 03
00:13:14.794 : :Глава 04
00:19:22.369 : :Глава 05
00:21:31.832 : :Глава 06
00:26:41.975 : :Глава 07
00:32:31.240 : :Глава 08
00:34:48.086 : :Глава 09
00:39:49.428 : :Глава 10
00:45:49.121 : :Глава 11
00:51:22.204 : :Глава 12
00:54:31.851 : :Глава 13
00:58:58.201 : :Глава 14
01:02:58.441 : :Глава 15
01:08:21.597 : :Глава 16
01:11:40.963 : :Глава 17
01:15:03.415 : :Глава 18
01:20:54.808 : :Глава 19
01:23:52.527 : :Глава 20

pb.wtf



Скачать Агент Джонни Инглиш 3.0 через торрент http://img10.lostpic.net/2019/01/15/d46bae35b0313cde9d5dda6247b9222f.jpg Скачать фильм Агент Джонни Инглиш 3.0 через торрент бесплантно в хорошем качестве Описание: Когда все агенты секретной службы Её Величества внезапно выходят из строя, в игру вступает запасной вариант. Образец английского ... 10 10 2
Торрент: Зарегистрирован [2019-01-15 13:36] · скачан: 100 раз
Статус: √ проверено
Размер: 34.5 GB
Как cкачать? Как скачать Агент Джонни Инглиш 3.0 через торрент | qTorrent

% Раздел Тема Автор DL S | L
Ultra HD (UHD: 2K, 4K, 8K) — видео сверхвысокой чёткости [ 51.15 GB ] Агент Джонни Инглиш 3.0 / Johnny English Strikes Again [2018 UHD Blu-Ray 2160p] DUB [] bober100 Скачать
1 | 0
Ultra HD (UHD: 2K, 4K, 8K) — видео сверхвысокой чёткости [ 20.03 GB ] Агент Джонни Инглиш 3.0 / Johnny English Strikes Again [2018 UHD BDRip 2160p] [SDR] DUB [] sheker187 Скачать
1 | 0
Фильмы [HD 720p, 1080p] (Хороший звук DUB, MVO) [ 7.98 GB ] Агент Джонни Инглиш 3.0 / Johnny English Strikes Again [2018 BDRip 1080p] DUB [] bober100 Скачать
1 | 0
Фильмы 2018 [DVDrip, WEB-DLRip, HDrip] (DUB, MVO) [ 1.46 GB ] Агент Джонни Инглиш 3.0 / Johnny English Strikes Again [2018 BDRip] - [] Twi7ter Скачать
6 | 0
T Фильмы [HD 720p, 1080p] (Хороший звук DUB, MVO) [ 4.6 GB ] Агент Джонни Инглиш 3.0 / Johnny English Strikes Again [2018 BDRip 720p] DUB +MVO [HDrezka Studio] bober100 Скачать
2 | 0
Фильмы [HD 720p, 1080p] (Хороший звук DUB, MVO) [ 4.77 GB ] Агент Джонни Инглиш 3.0 / Johnny English Strikes Again [2018 BDRip 720p] DUB [] bober100 Скачать
1 | 0
Ultra HD (UHD: 2K, 4K, 8K) — видео сверхвысокой чёткости [ 10.07 GB ] Агент Джонни Инглиш 3.0 / Johnny English Strikes Again [2018 UHD BDRip 2160p] DUB [] sheker187 Скачать
1 | 0

28-11-2019 20:33  

Отключить всю рекламу на сайте

    Дорогой пользователь! Огромная просьба, поблагодарите релизера, оцените раздачу и оставьте свои комментарий, если Вы скачали Агент Джонни Инглиш 3.0 через торрент бесплатно! Внесите свою лепту в развитие PiratBit!
    Комментировать посты могут только пользователи прошедшие не сложную регистрацию
    Показать сообщения:    

    Агент Джонни Инглиш 3.0 через торрент
    Скачать бесплатно Агент Джонни Инглиш 3.0
    Агент Джонни Инглиш 3.0 скачать торрент
    Агент Джонни Инглиш 3.0 смотреть онлайн
    Cкачать фильм Агент Джонни Инглиш 3.0 бесплатно
    Агент Джонни Инглиш 3.0 скачать торрент в хорошем качестве
    Агент Джонни Инглиш 3.0 смотреть онлайн бесплатно в хорошем качестве


    Вы не можете начинать темы
    Вы не можете отвечать на сообщения
    Вы не можете редактировать свои сообщения
    Вы не можете удалять свои сообщения
    Вы не можете голосовать в опросах
    Вы не можете прикреплять файлы к сообщениям
    Вы можете скачивать файлы