1 сезон

1 сезон

iTunes

1

КиноПоиск HD

Кинопоиск HD

iTunes

13

1 сезон

RePack

30

Новинка

ВАЖНО

ИГРА 18+

pack

RePack

MK11
pack

Легкие деньги

RePack

jed

RePack

fifa19

RePack

RDR2

RePack

NEED FOR SPEED™ PAYBACK

4 сезон

9 сезон

Бесстыжие 9 сезон

Все сериалы

все сериалы на PB.wtf

RePack

FAR CRY 5
  
Magnet ссылка

Обитель зла / Resident Evil (Пол У. С. Андерсон) [2002 г., Ужасы, боевик, фантастика, HDRip-AVC, Дубляж] pb.wtf

Обитель зла через торрент pb.wtf

Размер: 2.16 GB | Добавлен: 2 года 2 мес. назад | Торрент скачан:121 раз
Скачать  

15-01-2019 15:43 Обитель зла Скачать торрент  

Обитель зла
/ Resident Evil
Год выпуска: 2002
Страна: Германия, США
Жанр: Ужасы, боевик, фантастика
Продолжительность: 01:40:31
Перевод: Дубляж
Субтитры: отсутствуют

Режиссер: Пол У. С. Андерсон

Премьера в мире: 12 марта 2002

rating

В ролях: Милла Йовович, Мишель Родригес, Эрик Мэбиас, Джеймс Пьюрфой, Мартин Крюз, Колин Сэлмон, Райан МакКласки, Оскар Пирс, Индра Ове, Анна Болт

Описание: В гигантской подземной лаборатории на волю вырывается опаснейший вирус, мгновенно превращая своих жертв в прожорливых зомби. Достаточно одного их укуса или царапины страшных когтей, чтобы человек стал обезумевшим пожирателем живой плоти. Военные посылают в секретный комплекс, кишащий ужасными мутировавшими животными и голодными монстрами, группу спецназа, к которой присоединяются очаровательная Элис и отважный полицейский Мэтт. У них есть только три часа, чтобы уничтожить вирус до того, как он распространится по всей Земле…

Качество: HDRip-AVC
Формат: MKV
Видео кодек: H.264
Аудио кодек: AC3
Видео: AVC/H.264, 1024х552, ~2635 kbps, 0.194 bit/pixel
Аудио#1: AC3, 6 ch, 448 kbps - Дублированный (Парадиз ВС)
Релиз от: winchester00100010
Общее
Уникальный идентификатор : 245928788118265377769117119931607422558 (0xB9042966A35A826A8F08A3AF5598165E)
Полное имя : D:\МОИ РАЗДАЧИ ФИЛЬМЫ И СЕРИАЛЫ\Resident.Evil.2002.x264.HDRip-AVC.mkv
Формат : Matroska
Версия формата : Version 2
Размер файла : 2,16 Гбайт
Продолжительность : 1 ч. 40 м.
Общий поток : 3081 Кбит/сек
Дата кодирования : UTC 2017-10-01 13:37:57
Программа кодирования : mkvmerge v7.8.0 ('River Man') 32bit built on Apr 3 2015 12:11:22
Библиотека кодирования : libebml v1.3.1 + libmatroska v1.4.2

Видео
Идентификатор : 1
Формат : AVC
Формат/Информация : Advanced Video Codec
Профиль формата : High@L4.1
Настройки формата : CABAC / 12 Ref Frames
Параметр CABAC формата : Да
Параметр RefFrames формата : 12 кадров
Идентификатор кодека : V_MPEG4/ISO/AVC
Продолжительность : 1 ч. 40 м.
Битрейт : 2635 Кбит/сек
Ширина : 1024 пикселя
Высота : 552 пикселя
Соотношение сторон : 1,85:1
Режим частоты кадров : Постоянный
Частота кадров : 23,976 (24000/1001) кадра/сек
Цветовое пространство : YUV
Субдискретизация насыщенности : 4:2:0
Битовая глубина : 8 бит
Тип развёртки : Прогрессивная
Бит/(Пиксели*Кадры) : 0.194
Размер потока : 1,81 Гбайт (83%)
Библиотека кодирования : x264 core 146 r2538 121396c
Настройки программы : cabac=1 / ref=12 / deblock=1:-3:-3 / analyse=0x3:0x113 / me=umh / subme=11 / psy=1 / psy_rd=1.00:0.00 / mixed_ref=1 / me_range=32 / chroma_me=1 / trellis=2 / 8x8dct=1 / cqm=0 / deadzone=21,11 / fast_pskip=0 / chroma_qp_offset=-2 / threads=12 / lookahead_threads=2 / sliced_threads=0 / nr=0 / decimate=0 / interlaced=0 / bluray_compat=0 / constrained_intra=0 / bframes=10 / b_pyramid=2 / b_adapt=2 / b_bias=0 / direct=3 / weightb=1 / open_gop=0 / weightp=2 / keyint=240 / keyint_min=23 / scenecut=40 / intra_refresh=0 / rc_lookahead=40 / rc=2pass / mbtree=0 / bitrate=2635 / ratetol=1.0 / qcomp=0.60 / qpmin=0 / qpmax=69 / qpstep=4 / cplxblur=20.0 / qblur=0.5 / vbv_maxrate=14000 / vbv_bufsize=14000 / nal_hrd=none / filler=0 / ip_ratio=1.40 / pb_ratio=1.30 / aq=1:1.00
Default : Да
Forced : Нет

Аудио
Идентификатор : 2
Формат : AC-3
Формат/Информация : Audio Coding 3
Коммерческое название : Dolby Digital
Идентификатор кодека : A_AC3
Продолжительность : 1 ч. 40 м.
Вид битрейта : Постоянный
Битрейт : 448 Кбит/сек
Каналы : 6 каналов
Channel layout : L R C LFE Ls Rs
Частота : 48,0 КГц
Частота кадров : 31,250 кадров/сек (1536 SPF)
Битовая глубина : 16 бит
Метод сжатия : С потерями
Размер потока : 322 Мбайт (15%)
ServiceKind/String : Complete Main
Default : Да
Forced : Нет

pb.wtf



Скачать Обитель зла через торрент https://pic1.kartinco.top/images/12/iahhe.jpg Скачать фильм Обитель зла через торрент бесплантно в хорошем качестве Описание: В гигантской подземной лаборатории на волю вырывается опаснейший вирус, мгновенно превращая своих жертв в прожорливых зомби. ... 10 10 1
Info! Золотая раздача, скачанное не засчитывается.
Торрент: Зарегистрирован [2019-01-15 15:43] · скачан: 121 раз
Статус: √ проверено
Размер: 2.16 GB
Как cкачать? Как скачать Обитель зла через торрент | UTorrent

% Раздел Тема Автор DL S | L
Ultra HD (UHD: 2K, 4K, 8K) — видео сверхвысокой чёткости [ 44.37 GB ] Обитель зла 3 / Resident Evil: Extinction [2007 UHD BDRemux 2160p] DUB [] +AVO [Ю.Живов] +MVO bober100 Скачать
2 | 0
Ultra HD (UHD: 2K, 4K, 8K) — видео сверхвысокой чёткости [ 44.26 GB ] Обитель зла 2: Апокалипсис / Resident Evil 2: Apocalypse [2004 UHD BDRemux 2160p] DUB [] +MVO +DVO+AVO bober100 Скачать
2 | 0
Ultra HD (UHD: 2K, 4K, 8K) — видео сверхвысокой чёткости [ 58.05 GB ] Обитель зла / Resident Evil [2002 UHD BDRemux 2160p] DUB+MVO +2xDVO+4xAVO bober100 Скачать
3 | 0
R.G. Resident & PiratVoice - Фильмы, Видео [ 1.46 GB ] Обитель зла: Возмездие / Resident Evil: Retribution [2012 HDRip ] от R.G. Resident Dean24 Скачать
1 | 0
Фильмы [HD 720p, 1080p] (Хороший звук DUB, MVO) [ 5.55 GB ] Обитель зла: Последняя глава / Resident Evil: The Final Chapter [2016 BDRip-HEVC 1080p ] DUB [] bober100 Скачать
2 | 0
Зарубежные Мультфильмы (BDRip 1080p, 720p, Blu-ray, BD-Remux) [ 2.54 GB ] Обитель зла: Вендетта / Resident Evil: Vendetta [2017 Мультфильм BDRip 1080p-HEVC 10bit ] ADVOKAT69 Скачать
1 | 0
Ultra HD (UHD: 2K, 4K, 8K) [ 38.99 GB ] Обитель зла: Вендетта / Resident Evil: Vendetta [2017 мультфильм UHD BDRemux 2160p] DUB [] [Dolby Vision TV] sheker187 Скачать
1 | 0

28-11-2019 20:33  

Отключить всю рекламу на сайте

15-01-2019 15:50 Обитель зла Скачать торрент  

Всем приятного просмотра)pb.wtf



    Дорогой пользователь! Огромная просьба, поблагодарите релизера, оцените раздачу и оставьте свои комментарий, если Вы скачали Обитель зла через торрент бесплатно! Внесите свою лепту в развитие PiratBit!
    Комментировать посты могут только пользователи прошедшие не сложную регистрацию
    Показать сообщения:    

    Обитель зла через торрент
    Скачать бесплатно Обитель зла
    Обитель зла скачать торрент
    Обитель зла смотреть онлайн
    Cкачать фильм Обитель зла бесплатно
    Обитель зла скачать торрент в хорошем качестве
    Обитель зла смотреть онлайн бесплатно в хорошем качестве


    Вы не можете начинать темы
    Вы не можете отвечать на сообщения
    Вы не можете редактировать свои сообщения
    Вы не можете удалять свои сообщения
    Вы не можете голосовать в опросах
    Вы не можете прикреплять файлы к сообщениям
    Вы можете скачивать файлы