Anonymous, доброй ночи, присоединяйтесь к нам в Telegram!, здесь всегда актуальный адрес сайта, оперативная поддержка и многое другое!

>

5.6

iTunes

7.4

iTunes

7.9

MVO

1

7.7

1 сезон

6.8

iTunes

7.3

1 сезон

13

6.7

1 сезон

8.3

RePack

30

ULTIMATE

pack

9.9

Лицензия

ВАЖНО

ИГРА 18+

pack

7.3

RePack

MK11

7.7

RePack

jed

7.8

RePack

fifa19

8.5

RePack

RDR2

RePack

NEED FOR SPEED™ PAYBACK

4 сезон

9 сезон

Бесстыжие 9 сезон

Все сериалы

все сериалы на PB.wtf

RePack

FAR CRY 5

Anonymous, доброй ночи, мы катастрофически не успеваем собрать деньги на оплату серверов, помогите нам пожалуйста 5,10,15р., для нас важна любая помощь . В качестве благодарности мы отключим Вам всю рекламу на сайте (укажите свой ник в строку Ваше имя)!

×
  
Magnet ссылка

Пьяная фирма / Серии: 1-4 из 4 (Григорий Константинопольский) [2016, Комедия, WEB-DL 720p] pb.wtf

Пьяная фирма через торрент pb.wtf

Размер: 5.18 GB | Добавлен: 2 года 9 мес. назад | Торрент скачан:133 раза
Смотреть онлайн Пьяная фирма | Скачать    Ребята, помогите собрать деньги на оплату серверов!!!

15-01-2019 18:58 Пьяная фирма Скачать торрент  

Пьяная фирма Год выпуска: 2016
Страна: Россия
Жанр: Комедия
Продолжительность: ~ 00:49:00
Перевод: Не требуется
Субтитры: отсутствуют

Режиссер: Григорий Константинопольский

rating

В ролях:

Михаил Ефремов (Григорий Штучный), Елизавета Боярская (Анастасия Григорьевна), Иван Макаревич (Илья), Анна Михалкова (Сабина), Марат Башаров (Гнилорыбов), Виктория Исакова (Мальвина), Юрий Колокольников (Славик), Ирина Апексимова (мама Ильи), Александр Петров (Григорий Штучный в молодости), Евгений Цыганов (ревнивый кавказец), Виктория Толстоганова (Галина Юрьевна), Ингеборга Дапкунайте (Майкл Джексон)
Описание:

Григорий Михайлович Штучный в прошлом опытный врач-реаниматолог, а ныне простой охранник. Он узнает, что его дочь (ее роль сыграла Елизавета Боярская), с которой он не общался много лет, нуждается в деньгах. К тому же она беременна. Чтобы помочь дочери, Григорий Михайлович Штучный начинает работать элитным «капельником», то есть выводит из запоя богатых клиентов, нуждающихся в его услугах. Так как дочь о существовании отца не подозревает, поэтому всячески удивляется, увидев конверт с нужной суммой у себя на столе.

Качество: WEB-DL 720p
Формат: MKV

Видео: 1232x518, 3200 Кбит/сек, 25 fps

Аудио: Русский (AC3, 2 ch, 192 Кбит/с)
скриншот  скриншот  скриншот  скриншот  

General
Unique ID : 295090038810834093754250693440862820131 (0xDE004632355274B8B47FDEF628CE1723)
Complete name : Downloads\Pjanaja.firma.2016.WEB-DL.720p\01.Pjanaja.firma.mkv
Format : Matroska
Format version : Version 4 / Version 2
File size : 1.25 GiB
Duration : 50mn 46s
Overall bit rate : 3 522 Kbps
Writing application : Lavf56.36.100
Writing library : Lavf56.36.100

Video #1
ID : 1
Format : AVC
Format/Info : Advanced Video Codec
Format profile : High@L3.1
Format settings, CABAC : Yes
Format settings, ReFrames : 1 frame
Format settings, GOP : M=1, N=12
Codec ID : V_MPEG4/ISO/AVC
Duration : 50mn 46s
Bit rate : 3 260 Kbps
Width : 1 232 pixels
Height : 518 pixels
Display aspect ratio : 2.40:1
Original display aspect ratio : 2.40:1
Frame rate mode : Constant
Frame rate : 25.000 fps
Standard : Component
Color space : YUV
Chroma subsampling : 4:2:0
Bit depth : 8 bits
Scan type : Progressive
Bits/(Pixel*Frame) : 0.204
Stream size : 1.16 GiB (93%)
Default : Yes
Forced : No
Color range : Limited

Audio #2
ID : 2
Format : AC-3
Format/Info : Audio Coding 3
Mode extension : CM (complete main)
Format settings, Endianness : Big
Codec ID : A_AC3
Duration : 50mn 46s
Bit rate mode : Constant
Bit rate : 192 Kbps
Channel(s) : 2 channels
Channel positions : Front: L R
Sampling rate : 44.1 KHz
Bit depth : 16 bits
Compression mode : Lossy
Stream size : 69.7 MiB (5%)
Language : unknown
Default : Yes
Forced : No

pb.wtf



Скачать Пьяная фирма через торрент http://i88.fastpic.ru/big/2016/1219/ef/c5e38acaf0ee6746f27810396a11dcef.png Скачать, смотреть онлайн Пьяная фирма бесплантно в хорошем качестве Описание: Григорий Михайлович Штучный в прошлом опытный врач-реаниматолог, а ныне простой охранник. Он узнает, что его дочь (ее роль ... 10 10 7
Info! Золотая раздача, скачанное не засчитывается.
Торрент: Зарегистрирован [2019-01-15 18:58] · скачан: 133 раз
Статус: √ проверено
Размер: 5.18 GB
Как cкачать? Как скачать Пьяная фирма через торрент | UTorrent

% Раздел Тема Автор DL S | L
Наши сериалы [ 1.73 GB ] Пьяная фирма / Сезон 1 / Серия 1-4 из 4 [2016 Россия SATRip] GEKADOL Скачать
2 | 0
Наши сериалы [ 2.31 GB ] Пьяная фирма / Серии: 1-4 из 4 [2016 авантюрная SATRip-AVC] aleksan55 Скачать
1 | 0

28-11-2019 20:33  

Отключить всю рекламу на сайте

    Дорогой пользователь! Огромная просьба, поблагодарите релизера, оцените раздачу и оставьте свои комментарий, если Вы скачали Пьяная фирма через торрент бесплатно!
    Комментировать посты могут только пользователи прошедшие не сложную регистрацию
    Показать сообщения:    

    Пьяная фирма через торрент
    Скачать бесплатно Пьяная фирма
    Пьяная фирма скачать торрент
    Пьяная фирма смотреть онлайн
    Cкачать фильм Пьяная фирма бесплатно
    Пьяная фирма скачать торрент в хорошем качестве
    Пьяная фирма смотреть онлайн бесплатно в хорошем качестве


    Вы не можете начинать темы
    Вы не можете отвечать на сообщения
    Вы не можете редактировать свои сообщения
    Вы не можете удалять свои сообщения
    Вы не можете голосовать в опросах
    Вы не можете прикреплять файлы к сообщениям
    Вы можете скачивать файлы