Ссылка на приватное зеркало нашего сайта всего за 1$. Внимание количество ограничено!!!

2 сезон

iTunes

1 сезон

1

iTunes

iTunes

iTunes

1 сезон

RePack

30

ИГРА 18+

pack

ВАЖНО

!!Акция!!

Alien_RageХит недели

RePack

MK11
pack

Забери бонус

RePack

jed

!!Акция!!

Alien_Rage

RePack

fifa19

RePack

Assassins Creed: Odyssey

RePack

NEED FOR SPEED™ PAYBACK

4 сезон

9 сезон

Бесстыжие 9 сезон

Все сериалы

все сериалы на PB.wtf

RePack

FAR CRY 5
  

Агент Джонни Инглиш 3.0 / Johnny English Strikes Again (Дэвид Керр) [2018, боевик, комедия, приключения, UHD BDRip 2160p] DUB [Лицензия] pb.wtf

Агент Джонни Инглиш 3.0 через торрент pb.wtf

Размер: 10.07 GB | Добавлен: 1 год 9 мес. назад | Торрент скачан:171 раз
Скачать  

16-01-2019 05:49 Агент Джонни Инглиш 3.0 Скачать торрент  

Агент Джонни Инглиш 3.0 / Johnny English Strikes Again««Не всегда интеллект красит мужчину»»

Год выпуска: 2018
Страна: Великобритания, Франция, США
Жанр: боевик, комедия, приключения
Продолжительность: 01:28:49
Перевод: Дублированный [Лицензия]
Субтитры: Русские (Forced, full), английские
В ролях:

Роуэн Эткинсон (Johnny English), Кевин Элдон (Night Duty Agent), Эмма Томпсон (Prime Minister), Адам Джеймс (Pegasus), Noah Spiers (Baggaley), Kendra Mei (Ibadulla), Alfie Kennedy (Straker), Jasmine Brightmore (Dowling), Джордж Тернер (Hattersley), Rua Robertson (Ridley), Адам Гривз-Нил (Tomlinson), Nifemi Bankole (Obasanjo)
Описание:
Когда все агенты секретной службы Её Величества внезапно выходят из строя, в игру вступает запасной вариант. Образец английского стиля и любимец роковых красоток; король безвыходных ситуаций и хранитель аналоговых традиций в цифровом мире, агент Джонни Инглиш - боль и гордость британской разведки. Этому парню есть что взбалтывать, и он взболтает не по-детски.
Рейтинг:

MPAA: PG - Рекомендуется присутствие родителей
Качество: UHD BDRip 2160p
Формат: MKV
Видео: HEVC HDR, 16300 Кбит/с, 3840x1606, 23.976 кадр/с, 10 бит
Аудио: 48 kHz, DTS, 5.1, 768 Kbps | Дублированный_Лицензия | RUS |
Аудио: 48 kHz, AC3, 5.1, 448 Kbps | Дублированный_Лицензия | RUS |
Аудио: 48 kHz, DTS-HD MA, 7.1, 5910 Kbps | Оригинал | ENG
Аудио: 48 kHz, AC3, 5.1, 640 Kbps | Оригинал | ENG
Навигация по главам: есть
Общее
Уникальный идентификатор : 238970025017854713199116249900586939502 (0xB3C7F3E419B168EE991437D21604B46E)
Полное имя : D:\Передел_2\Новая папка (2)\Johnny.English.Strikes.Again.2018.2160p.BDRip.x265.10bit.HDR.Master5.mkv
Формат : Matroska
Версия формата : Version 4
Размер файла : 10,1 Гбайт
Продолжительность : 1 ч. 28 м.
Режим общего битрейта : Переменный
Общий поток : 16,3 Мбит/сек
Название фильма : Johnny.English.Strikes.Again.2018.2160p.BDRip.x265.10bit.HDR.Master5
Дата кодирования : UTC 2019-01-15 22:42:55
Программа кодирования : mkvmerge v7.9.0 ('Birds') 64bit
Библиотека кодирования : libebml v1.3.1 + libmatroska v1.4.2
Обложка : Yes
Attachments : small_cover.jpg / small_cover_land.jpg / cover.jpg / cover_land.jpg

Видео
Идентификатор : 1
Формат : HEVC
Формат/Информация : High Efficiency Video Coding
Коммерческое название : HDR10
Профиль формата : Main 10@L5.1@High
Идентификатор кодека : V_MPEGH/ISO/HEVC
Продолжительность : 1 ч. 28 м.
Битрейт : 8514 Кбит/сек
Ширина : 3840 пикселей
Высота : 1606 пикселей
Соотношение сторон : 2,40:1
Режим частоты кадров : Постоянный
Частота кадров : 23,976 (24000/1001) кадра/сек
Цветовое пространство : YUV
Субдискретизация насыщенности : 4:2:0 (Type 2)
Битовая глубина : 10 бит
Бит/(Пиксели*Кадры) : 0.058
Размер потока : 5,26 Гбайт (52%)
Заголовок : Johnny.English.Strikes.Again.2018.2160p.BDRip.x265.10bit.HDR.Master5
Библиотека кодирования : x265 3.0_RC+7-0614145ecaf2:[Windows][GCC 8.2.1][64 bit] 10bit
Настройки программы : cpuid=1111039 / frame-threads=16 / numa-pools=24,24,24,24 / wpp / no-pmode / no-pme / no-psnr / no-ssim / log-level=2 / input-csp=1 / input-res=3840x1606 / interlace=0 / total-frames=0 / level-idc=51 / high-tier=1 / uhd-bd=0 / ref=3 / no-allow-non-conformance / repeat-headers / annexb / aud / hrd / info / hash=0 / no-temporal-layers / no-open-gop / min-keyint=1 / keyint=24 / gop-lookahead=0 / bframes=4 / b-adapt=2 / b-pyramid / bframe-bias=0 / rc-lookahead=25 / lookahead-slices=4 / scenecut=40 / radl=0 / no-splice / no-intra-refresh / ctu=64 / min-cu-size=8 / no-rect / no-amp / max-tu-size=32 / tu-inter-depth=1 / tu-intra-depth=1 / limit-tu=0 / rdoq-level=0 / dynamic-rd=0.00 / no-ssim-rd / signhide / no-tskip / nr-intra=0 / nr-inter=0 / no-constrained-intra / strong-intra-smoothing / max-merge=2 / limit-refs=3 / no-limit-modes / me=1 / subme=2 / merange=57 / temporal-mvp / weightp / no-weightb / no-analyze-src-pics / deblock=0:0 / no-sao / no-sao-non-deblock / rd=3 / no-early-skip / rskip / no-fast-intra / no-tskip-fast / no-cu-lossless / no-b-intra / no-splitrd-skip / rdpenalty=0 / psy-rd=2.00 / psy-rdoq=0.00 / no-rd-refine / no-lossless / cbqpoffs=0 / crqpoffs=0 / rc=crf / crf=16.0 / qcomp=0.60 / qpstep=4 / stats-write=0 / stats-read=0 / vbv-maxrate=160000 / vbv-bufsize=160000 / vbv-init=0.9 / crf-max=0.0 / crf-min=0.0 / ipratio=1.40 / pbratio=1.30 / aq-mode=1 / aq-strength=1.00 / cutree / zone-count=0 / no-strict-cbr / qg-size=32 / no-rc-grain / qpmax=69 / qpmin=0 / no-const-vbv / sar=1 / overscan=0 / videoformat=5 / range=0 / colorprim=9 / transfer=16 / colormatrix=9 / chromaloc=1 / chromaloc-top=2 / chromaloc-bottom=2 / display-window=0 / master-display=G(13250,34500)B(7500,3000)R(34000,16000)WP(15635,16450)L(10000000,50) / max-cll=1000,155 / min-luma=0 / max-luma=1023 / log2-max-poc-lsb=8 / vui-timing-info / vui-hrd-info / slices=1 / opt-qp-pps / opt-ref-list-length-pps / no-multi-pass-opt-rps / scenecut-bias=0.05 / no-opt-cu-delta-qp / no-aq-motion / hdr / hdr-opt / no-dhdr10-opt / no-idr-recovery-sei / analysis-reuse-level=5 / scale-factor=0 / refine-intra=0 / refine-inter=0 / refine-mv=0 / refine-ctu-distortion=0 / no-limit-sao / ctu-info=0 / no-lowpass-dct / refine-analysis-type=0 / copy-pic=1 / max-ausize-factor=1.0 / no-dynamic-refine / no-single-sei / no-hevc-aq / qp-adaptation-range=1.00
Default : Да
Forced : Нет
Цветовой диапазон : Limited
Основные цвета : BT.2020
Характеристики трансфера : PQ
Коэффициенты матрицы : BT.2020 non-constant
MasteringDisplay_ColorPrimaries : Display P3
MasteringDisplay_Luminance : min: 0.0050 cd/m2, max: 1000 cd/m2
MaxCLL : 1000 cd/m2
MaxFALL : 155 cd/m2

Аудио #1
Идентификатор : 2
Формат : DTS
Формат/Информация : Digital Theater Systems
Идентификатор кодека : A_DTS
Продолжительность : 1 ч. 28 м.
Вид битрейта : Постоянный
Битрейт : 768 Кбит/сек
Каналы : 6 каналов
Channel layout : C L R Ls Rs LFE
Частота : 48,0 КГц
Частота кадров : 93,750 кадра/сек (512 SPF)
Битовая глубина : 24 бит
Метод сжатия : С потерями
Размер потока : 486 Мбайт (5%)
Заголовок : Dub License
Язык : Russian
Default : Нет
Forced : Да

Аудио #2
Идентификатор : 3
Формат : AC-3
Формат/Информация : Audio Coding 3
Коммерческое название : Dolby Digital
Идентификатор кодека : A_AC3
Продолжительность : 1 ч. 28 м.
Вид битрейта : Постоянный
Битрейт : 448 Кбит/сек
Каналы : 6 каналов
Channel layout : L R C LFE Ls Rs
Частота : 48,0 КГц
Частота кадров : 31,250 кадров/сек (1536 SPF)
Битовая глубина : 16 бит
Метод сжатия : С потерями
Размер потока : 284 Мбайт (3%)
Заголовок : Dub License
Язык : Russian
ServiceKind/String : Complete Main
Default : Нет
Forced : Нет

Аудио #3
Идентификатор : 4
Формат : DTS XLL X
Формат/Информация : Digital Theater Systems
Коммерческое название : DTS-HD Master Audio
Идентификатор кодека : A_DTS
Продолжительность : 1 ч. 28 м.
Вид битрейта : Переменный
Битрейт : 5910 Кбит/сек
Каналы : 8 каналов
Channel(s)_Original : Object Based
Channel layout : Object Based
Частота : 48,0 КГц
Частота кадров : 93,750 кадра/сек (512 SPF)
Размер потока : 3,65 Гбайт (36%)
Язык : English
Default : Да
Forced : Нет

Аудио #4
Идентификатор : 5
Формат : AC-3
Формат/Информация : Audio Coding 3
Коммерческое название : Dolby Digital
Идентификатор кодека : A_AC3
Продолжительность : 1 ч. 28 м.
Вид битрейта : Постоянный
Битрейт : 640 Кбит/сек
Каналы : 6 каналов
Channel layout : L R C LFE Ls Rs
Частота : 48,0 КГц
Частота кадров : 31,250 кадров/сек (1536 SPF)
Битовая глубина : 16 бит
Метод сжатия : С потерями
Размер потока : 405 Мбайт (4%)
Язык : English
ServiceKind/String : Complete Main
Default : Нет
Forced : Нет

Текст #1
Идентификатор : 6
Формат : UTF-8
Идентификатор кодека : S_TEXT/UTF8
Идентификатор кодека/Информация : UTF-8 Plain Text
Продолжительность : 1 ч. 27 м.
Битрейт : 0 бит/сек
ElementCount : 15
Размер потока : 459 байт (0%)
Заголовок : Forced
Язык : Russian
Default : Да
Forced : Да

Текст #2
Идентификатор : 7
Формат : UTF-8
Идентификатор кодека : S_TEXT/UTF8
Идентификатор кодека/Информация : UTF-8 Plain Text
Продолжительность : 1 ч. 27 м.
Битрейт : 69 бит/сек
ElementCount : 1007
Размер потока : 44,4 Кбайт (0%)
Заголовок : Full
Язык : Russian
Default : Нет
Forced : Нет

Текст #3
Идентификатор : 8
Формат : UTF-8
Идентификатор кодека : S_TEXT/UTF8
Идентификатор кодека/Информация : UTF-8 Plain Text
Продолжительность : 1 ч. 22 м.
Битрейт : 56 бит/сек
ElementCount : 1022
Размер потока : 34,3 Кбайт (0%)
Заголовок : Full
Язык : English
Default : Нет
Forced : Нет

Меню
00:00:00.000 : :Chapter 01
00:05:06.681 : :Chapter 02
00:09:05.378 : :Chapter 03
00:13:14.794 : :Chapter 04
00:19:22.369 : :Chapter 05
00:21:31.832 : :Chapter 06
00:26:41.975 : :Chapter 07
00:32:31.240 : :Chapter 08
00:34:48.086 : :Chapter 09
00:39:49.428 : :Chapter 10
00:45:49.121 : :Chapter 11
00:51:22.204 : :Chapter 12
00:54:31.851 : :Chapter 13
00:58:58.201 : :Chapter 14
01:02:58.441 : :Chapter 15
01:08:21.597 : :Chapter 16
01:11:40.963 : :Chapter 17
01:15:03.415 : :Chapter 18
01:20:54.808 : :Chapter 19
01:23:52.527 : :Chapter 20
pb.wtf



Скачать Агент Джонни Инглиш 3.0 через торрент https://c.radikal.ru/c00/1901/4e/6d5c562a3671.png Скачать фильм Агент Джонни Инглиш 3.0 через торрент бесплантно в хорошем качестве Описание: Когда все агенты секретной службы Её Величества внезапно выходят из строя, в игру вступает запасной вариант. Образец английского ... 10 10 1
Торрент: Зарегистрирован [2019-01-16 05:49] · скачан: 171 раз
Статус: √ проверено
Размер: 10.07 GB
Как cкачать? Как скачать Агент Джонни Инглиш 3.0 через торрент | qTorrent

% Раздел Тема Автор DL S | L
Ultra HD (UHD: 2K, 4K, 8K) — видео сверхвысокой чёткости [ 51.15 GB ] Агент Джонни Инглиш 3.0 / Johnny English Strikes Again [2018 UHD Blu-Ray 2160p] DUB [] bober100 Скачать
1 | 0
Ultra HD (UHD: 2K, 4K, 8K) — видео сверхвысокой чёткости [ 20.03 GB ] Агент Джонни Инглиш 3.0 / Johnny English Strikes Again [2018 UHD BDRip 2160p] [SDR] DUB [] sheker187 Скачать
1 | 0
Фильмы [HD 720p, 1080p] (Хороший звук DUB, MVO) [ 7.98 GB ] Агент Джонни Инглиш 3.0 / Johnny English Strikes Again [2018 BDRip 1080p] DUB [] bober100 Скачать
1 | 0
Фильмы 2018 [DVDrip, WEB-DLRip, HDrip] (DUB, MVO) [ 1.46 GB ] Агент Джонни Инглиш 3.0 / Johnny English Strikes Again [2018 BDRip] - [] Twi7ter Скачать
4 | 0
T Фильмы [HD 720p, 1080p] (Хороший звук DUB, MVO) [ 4.6 GB ] Агент Джонни Инглиш 3.0 / Johnny English Strikes Again [2018 BDRip 720p] DUB +MVO [HDrezka Studio] bober100 Скачать
1 | 0
Фильмы [HD 720p, 1080p] (Хороший звук DUB, MVO) [ 4.77 GB ] Агент Джонни Инглиш 3.0 / Johnny English Strikes Again [2018 BDRip 720p] DUB [] bober100 Скачать
1 | 0
Ultra HD (UHD: 2K, 4K, 8K) — видео сверхвысокой чёткости [ 34.5 GB ] Агент Джонни Инглиш 3.0 / Johnny English Strikes Again [2018 UHD BDRemux 2160p] DUB [] bober100 Скачать
2 | 0

28-11-2019 20:33  

Отключить всю рекламу на сайте

    Дорогой пользователь! Огромная просьба, поблагодарите релизера, оцените раздачу и оставьте свои комментарий, если Вы скачали Агент Джонни Инглиш 3.0 через торрент бесплатно! Внесите свою лепту в развитие PiratBit!
    Комментировать посты могут только пользователи прошедшие не сложную регистрацию
    Показать сообщения:    

    Агент Джонни Инглиш 3.0 через торрент
    Скачать бесплатно Агент Джонни Инглиш 3.0
    Агент Джонни Инглиш 3.0 скачать торрент
    Агент Джонни Инглиш 3.0 смотреть онлайн
    Cкачать фильм Агент Джонни Инглиш 3.0 бесплатно
    Агент Джонни Инглиш 3.0 скачать торрент в хорошем качестве
    Агент Джонни Инглиш 3.0 смотреть онлайн бесплатно в хорошем качестве


    Вы не можете начинать темы
    Вы не можете отвечать на сообщения
    Вы не можете редактировать свои сообщения
    Вы не можете удалять свои сообщения
    Вы не можете голосовать в опросах
    Вы не можете прикреплять файлы к сообщениям
    Вы можете скачивать файлы