Ссылка на приватное зеркало всего за 1$. Внимание количество ограничено!!!

OK

1+1

iTunes

мы

OK

1

WEB-DLRip

Джокер

Пифагор

Ведьмак / The Witcher сериал

Лицензия

ПШазам

ОК

Оно 2

iTunes

30
pack

Вам бонус

ВАЖНО

!!Акция!!

Alien_RageХит недели

RePack

Resident Evil 21

ИГРА 18+

pack

RePack

jed

!!Акция!!

Alien_Rage

RePack

fifa19

RePack

Assassins Creed: Odyssey

RePack

NEED FOR SPEED™ PAYBACK

4 сезон

9 сезон

Бесстыжие 9 сезон

Все сериалы

все сериалы на PB.wtf

RePack

FAR CRY 5
  

Больше / Bigger (Джордж Галло) [2018, драма, WEB-DL 720p] MVO [@MUZOBOZ@] pb.wtf

Больше через торрент pb.wtf

Размер: 4.35 GB | Добавлен: 1 год назад | Торрент скачан:113 раз
Скачать  

16-01-2019 06:12 Больше Скачать торрент  

Больше / BiggerГод выпуска: 2018
Страна: США
Жанр: драма
Продолжительность: 01:48:22
Перевод: Любительский (многоголосый) | @MUZOBOZ@
Субтитры: отсутствуют

Режиссер: Джордж Галло

rating

В ролях:

Джулианна Хаф, Тайлер Хэклин, Колтон Хэйнс, Макс Мартини, Кевин Дюран, DJ Куоллс, Виктория Джастис, Стив Гуттенберг, Анайрин Барнард, Роберт Форстер

Описание:

Братья Джо и Бен Уайдеры - профессиональные тренеры, всю жизнь занимавшиеся популяризацией бодибилдинга. В 1946 году они основали Международную федерацию бодибилдинга, которая впоследствии выросла в мощную и влиятельную организацию. Именно они обнаружили в Австрии молодого Арнольда Шварценеггера и уговорили его переехать в США. Фильм расскажет, как строилась империя Уайдеров и скольким им пришлось пожертвовать, чтобы пробиться наверх.

Качество: WEB-DL 720p
Формат: MKV

Видео: h.264, 5 360 kb/s, 1280x530
Аудио#1: Русский, (AC3, 2 ch, 384 Кбит/с)
скриншот  скриншот  скриншот  

Общее
Уникальный идентификатор : 237209410171531335950427050301998383912 (0xB274DEE08EC5AF1B8118EC529B4E4328)
Полное имя : D:\Bigger.2018.P.WEB-DL.72Op_KOSHARA.mkv
Формат : Matroska
Версия формата : Version 2
Размер файла : 4,35 Гбайт
Продолжительность : 1 ч. 48 м.
Режим общего битрейта : Переменный
Общий поток : 5746 Кбит/сек
Дата кодирования : UTC 2019-01-15 20:23:58
Программа кодирования : mkvmerge v8.3.0 ('Over the Horizon') 64bit
Библиотека кодирования : libebml v1.3.1 + libmatroska v1.4.2

Видео
Идентификатор : 1
Формат : AVC
Формат/Информация : Advanced Video Codec
Профиль формата : High@L4.1
Параметр CABAC формата : Да
Параметр RefFrames формата : 4 кадра
Идентификатор кодека : V_MPEG4/ISO/AVC
Продолжительность : 1 ч. 48 м.
Вид битрейта : Переменный
Битрейт : 5360 Кбит/сек
Максимальный битрейт : 6000 Кбит/сек
Ширина : 1280 пикселей
Высота : 530 пикселей
Соотношение сторон : 2,40:1
Режим частоты кадров : Постоянный
Частота кадров : 23,976 (24000/1001) кадра/сек
Стандарт вещания : Component
Цветовое пространство : YUV
Субдискретизация насыщенности : 4:2:0
Битовая глубина : 8 бит
Тип развёртки : Прогрессивная
Бит/(Пиксели*Кадры) : 0.323
Размер потока : 3,97 Гбайт (91%)
Default : Да
Forced : Нет
Цветовой диапазон : Limited
Основные цвета : BT.709
Характеристики трансфера : BT.709
Коэффициенты матрицы : BT.709

Аудио
Идентификатор : 2
Формат : AC-3
Формат/Информация : Audio Coding 3
Расширение режима : CM (complete main)
Параметр Endianness формата : Big
Идентификатор кодека : A_AC3
Продолжительность : 1 ч. 48 м.
Вид битрейта : Постоянный
Битрейт : 384 Кбит/сек
Каналы : 2 канала
Расположение каналов : Front: L R
Частота : 48,0 КГц
Частота кадров : 31,250 кадров/сек (1536 spf)
Метод сжатия : С потерями
Размер потока : 298 Мбайт (7%)
Default : Да
Forced : Нет

pb.wtf



Скачать Больше через торрент https://d.radikal.ru/d09/1901/71/edd5237e1939.jpg Скачать фильм Больше через торрент бесплантно в хорошем качестве Описание: Братья Джо и Бен Уайдеры - профессиональные тренеры, всю жизнь занимавшиеся популяризацией бодибилдинга. В 1946 году они основали ... 10 10 4
Торрент: Зарегистрирован [2019-01-16 06:12] · скачан: 113 раз
Статус: T временная
Размер: 4.35 GB
Как cкачать? Как скачать Больше через торрент | qTorrent

% Раздел Тема Автор DL S | L
T Фильмы 2018 [DVDrip, WEB-DLRip, HDrip] (DUB, MVO) [ 1.46 GB ] Больше / Bigger [2018 WEB-DLRip] [MVO] killermax2013 Скачать
2 | 0
T Фильмы (мультфильмы) cо спонсором показа (Новинки AVI/MKV) [ 1.37 GB ] Больше / Bigger [2018 WEB-DLRip] MVO [@MUZOBOZ@] bober100 Скачать
1 | 0
Зарубежные Мультфильмы (BDRip 1080p, 720p, Blu-ray, BD-Remux) [ 4.09 GB ] Южный Парк: Большой длинный необрезанный / South Park: Bigger Longer & Uncut [1999 мюзикл мультфильм BDRip 720p от еnvy / NNNB] MVO AVO еnvy Скачать
6 | 0
Фильмы с авторской озвучкой [ 8.86 GB ] Больше чем жизнь / Bigger Than Life [1956 BDRip 1080p by msltel] AVO msltel Скачать
1 | 0
Фильмы с авторской озвучкой [ 2.91 GB ] Больше чем жизнь / Bigger Than Life [1956 BDRip 720p by msltel] AVO msltel Скачать
1 | 0
Фильмы 2015 [DVDrip, WEB-DLRip, HDrip] [ 2.86 GB ] Большой всплеск / A Bigger Splash [2015 BDRip-AVC] Dub potroks Скачать
1 | 0
Фильмы 2015 [DVDrip, WEB-DLRip, HDrip] [ 1.46 GB ] Большой всплеск / A Bigger Splash [2015 BDRip-AVC] Dub potroks Скачать
1 | 0

28-11-2019 20:33  

Отключить всю рекламу на сайте

    Дорогой пользователь! Огромная просьба, поблагодарите релизера, оцените раздачу и оставьте свои комментарий, если Вы скачали Больше через торрент бесплатно! Внесите свою лепту в развитие PiratBit!
    Комментировать посты могут только пользователи прошедшие не сложную регистрацию
    Показать сообщения:    

    Больше через торрент
    Скачать бесплатно Больше
    Больше скачать торрент
    Больше смотреть онлайн
    Cкачать фильм Больше бесплатно
    Больше скачать торрент в хорошем качестве
    Больше смотреть онлайн бесплатно в хорошем качестве


    Вы не можете начинать темы
    Вы не можете отвечать на сообщения
    Вы не можете редактировать свои сообщения
    Вы не можете удалять свои сообщения
    Вы не можете голосовать в опросах
    Вы не можете прикреплять файлы к сообщениям
    Вы можете скачивать файлы