Ссылка на приватное зеркало нашего сайта всего за 1$. Внимание количество ограничено!!!

2 сезон

iTunes

1 сезон

1

iTunes

iTunes

iTunes

1 сезон

RePack

30

ИГРА 18+

pack

ВАЖНО

!!Акция!!

Alien_RageХит недели

RePack

MK11
pack

Забери бонус

RePack

jed

!!Акция!!

Alien_Rage

RePack

fifa19

RePack

Assassins Creed: Odyssey

RePack

NEED FOR SPEED™ PAYBACK

4 сезон

9 сезон

Бесстыжие 9 сезон

Все сериалы

все сериалы на PB.wtf

RePack

FAR CRY 5
  

Агент Джонни Инглиш 3.0 / Johnny English Strikes Again (Дэвид Керр) [2018, боевик, комедия, приключения, UHD BDRip 2160p] [SDR] DUB [Лицензия] pb.wtf

Агент Джонни Инглиш 3.0 через торрент pb.wtf

Размер: 20.03 GB | Добавлен: 1 год 9 мес. назад | Торрент скачан:71 раз
Скачать  

16-01-2019 07:12 Агент Джонни Инглиш 3.0 Скачать торрент  

Агент Джонни Инглиш 3.0 / Johnny English Strikes Again««Не всегда интеллект красит мужчину»»

Год выпуска: 2018
Страна: Великобритания, Франция, США
Жанр: боевик, комедия, приключения
Продолжительность: 01:28:49
Перевод: Дублированный [Лицензия]
Субтитры: Русские (Forced, full), английские
В ролях:

Роуэн Эткинсон (Johnny English), Кевин Элдон (Night Duty Agent), Эмма Томпсон (Prime Minister), Адам Джеймс (Pegasus), Noah Spiers (Baggaley), Kendra Mei (Ibadulla), Alfie Kennedy (Straker), Jasmine Brightmore (Dowling), Джордж Тернер (Hattersley), Rua Robertson (Ridley), Адам Гривз-Нил (Tomlinson), Nifemi Bankole (Obasanjo)
Описание:
Когда все агенты секретной службы Её Величества внезапно выходят из строя, в игру вступает запасной вариант. Образец английского стиля и любимец роковых красоток; король безвыходных ситуаций и хранитель аналоговых традиций в цифровом мире, агент Джонни Инглиш - боль и гордость британской разведки. Этому парню есть что взбалтывать, и он взболтает не по-детски.
Рейтинг:

MPAA: PG - Рекомендуется присутствие родителей
Качество: UHD BDRip 2160p | SDR
Формат: MKV
Видео: MPEG-4 AVC, 24600 Кбит/с, 3840x1606, 23.976 кадр/с, 8 бит
Аудио: 48 kHz, DTS, 5.1, 768 Kbps | Дублированный_Лицензия | RUS |
Аудио: 48 kHz, AC3, 5.1, 448 Kbps | Дублированный_Лицензия | RUS |
Аудио: 48 kHz, DTS-HD MA, 7.1, 5910 Kbps | Оригинал | ENG
Аудио: 48 kHz, AC3, 5.1, 640 Kbps | Оригинал | ENG
Навигация по главам: есть
Общее
Уникальный идентификатор : 208689843664113148412484502404737821755 (0x9D0033AFBB9CB20FB0EF940D69A86C3B)
Полное имя : D:\Передел_2\Новая папка (7)\Johnny.English.Strikes.Again.2018.2160p.BDRip.x264.8bit.SDR.Master5.mkv
Формат : Matroska
Версия формата : Version 4
Размер файла : 20,0 Гбайт
Продолжительность : 1 ч. 28 м.
Режим общего битрейта : Переменный
Общий поток : 32,4 Мбит/сек
Название фильма : Johnny.English.Strikes.Again.2018.2160p.BDRip.x264.8bit.SDR.Master5
Дата кодирования : UTC 2019-01-16 06:05:23
Программа кодирования : mkvmerge v7.9.0 ('Birds') 64bit
Библиотека кодирования : libebml v1.3.1 + libmatroska v1.4.2
Обложка : Yes
Attachments : small_cover.jpg / small_cover_land.jpg / cover.jpg / cover_land.jpg

Видео
Идентификатор : 1
Формат : AVC
Формат/Информация : Advanced Video Codec
Профиль формата : High@L5.1
Настройки формата : CABAC / 5 Ref Frames
Параметр CABAC формата : Да
Параметр RefFrames формата : 5 кадров
Идентификатор кодека : V_MPEG4/ISO/AVC
Продолжительность : 1 ч. 28 м.
Битрейт : 24,6 Мбит/сек
Ширина : 3840 пикселей
Высота : 1606 пикселей
Соотношение сторон : 2,40:1
Режим частоты кадров : Постоянный
Частота кадров : 23,976 (24000/1001) кадра/сек
Цветовое пространство : YUV
Субдискретизация насыщенности : 4:2:0
Битовая глубина : 8 бит
Тип развёртки : Прогрессивная
Бит/(Пиксели*Кадры) : 0.167
Размер потока : 15,2 Гбайт (76%)
Заголовок : Johnny.English.Strikes.Again.2018.2160p.BDRip.x264.8bit.SDR.Master5
Библиотека кодирования : x264 core 157 r2935 545de2f
Настройки программы : cabac=1 / ref=5 / deblock=1:-1:-1 / analyse=0x3:0x113 / me=umh / subme=10 / psy=1 / psy_rd=1.00:0.15 / mixed_ref=1 / me_range=48 / chroma_me=1 / trellis=2 / 8x8dct=1 / cqm=0 / deadzone=21,11 / fast_pskip=1 / chroma_qp_offset=-3 / threads=48 / lookahead_threads=4 / sliced_threads=0 / nr=0 / decimate=0 / interlaced=0 / bluray_compat=0 / constrained_intra=0 / bframes=3 / b_pyramid=2 / b_adapt=2 / b_bias=0 / direct=3 / weightb=1 / open_gop=0 / weightp=2 / keyint=250 / keyint_min=23 / scenecut=40 / intra_refresh=0 / rc_lookahead=50 / rc=crf / mbtree=1 / crf=18.0 / qcomp=0.60 / qpmin=0 / qpmax=69 / qpstep=4 / ip_ratio=1.40 / aq=1:1.00
Default : Да
Forced : Нет

Аудио #1
Идентификатор : 2
Формат : DTS
Формат/Информация : Digital Theater Systems
Идентификатор кодека : A_DTS
Продолжительность : 1 ч. 28 м.
Вид битрейта : Постоянный
Битрейт : 768 Кбит/сек
Каналы : 6 каналов
Channel layout : C L R Ls Rs LFE
Частота : 48,0 КГц
Частота кадров : 93,750 кадра/сек (512 SPF)
Битовая глубина : 24 бит
Метод сжатия : С потерями
Размер потока : 486 Мбайт (2%)
Заголовок : Dub License
Язык : Russian
Default : Нет
Forced : Да

Аудио #2
Идентификатор : 3
Формат : AC-3
Формат/Информация : Audio Coding 3
Коммерческое название : Dolby Digital
Идентификатор кодека : A_AC3
Продолжительность : 1 ч. 28 м.
Вид битрейта : Постоянный
Битрейт : 448 Кбит/сек
Каналы : 6 каналов
Channel layout : L R C LFE Ls Rs
Частота : 48,0 КГц
Частота кадров : 31,250 кадров/сек (1536 SPF)
Битовая глубина : 16 бит
Метод сжатия : С потерями
Размер потока : 284 Мбайт (1%)
Заголовок : Dub License
Язык : Russian
ServiceKind/String : Complete Main
Default : Нет
Forced : Нет

Аудио #3
Идентификатор : 4
Формат : DTS XLL X
Формат/Информация : Digital Theater Systems
Коммерческое название : DTS-HD Master Audio
Идентификатор кодека : A_DTS
Продолжительность : 1 ч. 28 м.
Вид битрейта : Переменный
Битрейт : 5910 Кбит/сек
Каналы : 8 каналов
Channel(s)_Original : Object Based
Channel layout : Object Based
Частота : 48,0 КГц
Частота кадров : 93,750 кадра/сек (512 SPF)
Размер потока : 3,65 Гбайт (18%)
Язык : English
Default : Нет
Forced : Нет

Аудио #4
Идентификатор : 5
Формат : AC-3
Формат/Информация : Audio Coding 3
Коммерческое название : Dolby Digital
Идентификатор кодека : A_AC3
Продолжительность : 1 ч. 28 м.
Вид битрейта : Постоянный
Битрейт : 640 Кбит/сек
Каналы : 6 каналов
Channel layout : L R C LFE Ls Rs
Частота : 48,0 КГц
Частота кадров : 31,250 кадров/сек (1536 SPF)
Битовая глубина : 16 бит
Метод сжатия : С потерями
Размер потока : 405 Мбайт (2%)
Язык : English
ServiceKind/String : Complete Main
Default : Нет
Forced : Нет

Текст #1
Идентификатор : 6
Формат : UTF-8
Идентификатор кодека : S_TEXT/UTF8
Идентификатор кодека/Информация : UTF-8 Plain Text
Продолжительность : 1 ч. 27 м.
Битрейт : 0 бит/сек
ElementCount : 15
Размер потока : 459 байт (0%)
Заголовок : Forced
Язык : Russian
Default : Да
Forced : Да

Текст #2
Идентификатор : 7
Формат : UTF-8
Идентификатор кодека : S_TEXT/UTF8
Идентификатор кодека/Информация : UTF-8 Plain Text
Продолжительность : 1 ч. 27 м.
Битрейт : 69 бит/сек
ElementCount : 1007
Размер потока : 44,4 Кбайт (0%)
Заголовок : Full
Язык : Russian
Default : Нет
Forced : Нет

Текст #3
Идентификатор : 8
Формат : UTF-8
Идентификатор кодека : S_TEXT/UTF8
Идентификатор кодека/Информация : UTF-8 Plain Text
Продолжительность : 1 ч. 22 м.
Битрейт : 56 бит/сек
ElementCount : 1022
Размер потока : 34,3 Кбайт (0%)
Заголовок : Full
Язык : English
Default : Нет
Forced : Нет

Меню
00:00:00.000 : :Chapter 01
00:05:06.681 : :Chapter 02
00:09:05.378 : :Chapter 03
00:13:14.794 : :Chapter 04
00:19:22.369 : :Chapter 05
00:21:31.832 : :Chapter 06
00:26:41.975 : :Chapter 07
00:32:31.240 : :Chapter 08
00:34:48.086 : :Chapter 09
00:39:49.428 : :Chapter 10
00:45:49.121 : :Chapter 11
00:51:22.204 : :Chapter 12
00:54:31.851 : :Chapter 13
00:58:58.201 : :Chapter 14
01:02:58.441 : :Chapter 15
01:08:21.597 : :Chapter 16
01:11:40.963 : :Chapter 17
01:15:03.415 : :Chapter 18
01:20:54.808 : :Chapter 19
01:23:52.527 : :Chapter 20
pb.wtf



Скачать Агент Джонни Инглиш 3.0 через торрент https://c.radikal.ru/c00/1901/4e/6d5c562a3671.png Скачать фильм Агент Джонни Инглиш 3.0 через торрент бесплантно в хорошем качестве Описание: Когда все агенты секретной службы Её Величества внезапно выходят из строя, в игру вступает запасной вариант. Образец английского ... 7 10 3
Торрент: Зарегистрирован [2019-01-16 07:12] · скачан: 71 раз
Статус: √ проверено
Размер: 20.03 GB
Как cкачать? Как скачать Агент Джонни Инглиш 3.0 через торрент | qTorrent

% Раздел Тема Автор DL S | L
Ultra HD (UHD: 2K, 4K, 8K) — видео сверхвысокой чёткости [ 51.15 GB ] Агент Джонни Инглиш 3.0 / Johnny English Strikes Again [2018 UHD Blu-Ray 2160p] DUB [] bober100 Скачать
1 | 0
Фильмы [HD 720p, 1080p] (Хороший звук DUB, MVO) [ 7.98 GB ] Агент Джонни Инглиш 3.0 / Johnny English Strikes Again [2018 BDRip 1080p] DUB [] bober100 Скачать
1 | 0
Фильмы 2018 [DVDrip, WEB-DLRip, HDrip] (DUB, MVO) [ 1.46 GB ] Агент Джонни Инглиш 3.0 / Johnny English Strikes Again [2018 BDRip] - [] Twi7ter Скачать
3 | 0
T Фильмы [HD 720p, 1080p] (Хороший звук DUB, MVO) [ 4.6 GB ] Агент Джонни Инглиш 3.0 / Johnny English Strikes Again [2018 BDRip 720p] DUB +MVO [HDrezka Studio] bober100 Скачать
1 | 0
Фильмы [HD 720p, 1080p] (Хороший звук DUB, MVO) [ 4.77 GB ] Агент Джонни Инглиш 3.0 / Johnny English Strikes Again [2018 BDRip 720p] DUB [] bober100 Скачать
1 | 0
Ultra HD (UHD: 2K, 4K, 8K) — видео сверхвысокой чёткости [ 10.07 GB ] Агент Джонни Инглиш 3.0 / Johnny English Strikes Again [2018 UHD BDRip 2160p] DUB [] sheker187 Скачать
1 | 0
Ultra HD (UHD: 2K, 4K, 8K) — видео сверхвысокой чёткости [ 34.5 GB ] Агент Джонни Инглиш 3.0 / Johnny English Strikes Again [2018 UHD BDRemux 2160p] DUB [] bober100 Скачать
1 | 0

28-11-2019 20:33  

Отключить всю рекламу на сайте

26-01-2019 16:00 Агент Джонни Инглиш 3.0 Скачать торрент  

Снова в деле )pb.wtf



    Дорогой пользователь! Огромная просьба, поблагодарите релизера, оцените раздачу и оставьте свои комментарий, если Вы скачали Агент Джонни Инглиш 3.0 через торрент бесплатно! Внесите свою лепту в развитие PiratBit!
    Комментировать посты могут только пользователи прошедшие не сложную регистрацию
    Показать сообщения:    

    Агент Джонни Инглиш 3.0 через торрент
    Скачать бесплатно Агент Джонни Инглиш 3.0
    Агент Джонни Инглиш 3.0 скачать торрент
    Агент Джонни Инглиш 3.0 смотреть онлайн
    Cкачать фильм Агент Джонни Инглиш 3.0 бесплатно
    Агент Джонни Инглиш 3.0 скачать торрент в хорошем качестве
    Агент Джонни Инглиш 3.0 смотреть онлайн бесплатно в хорошем качестве


    Вы не можете начинать темы
    Вы не можете отвечать на сообщения
    Вы не можете редактировать свои сообщения
    Вы не можете удалять свои сообщения
    Вы не можете голосовать в опросах
    Вы не можете прикреплять файлы к сообщениям
    Вы можете скачивать файлы