Присоединяйтесь к нам в Telegram!, здесь всегда актуальный адрес сайта, оперативная поддержка и многое другое!!

>

5.9

iTunes

7.4

iTunes

9.4

1 сезон

1

7.4

2 сезон

7.2

iTunes

7.3

1 сезон

13

6.1

iTunes

8.3

GOG

30

ULTIMATE

pack

9.9

Лицензия

ВАЖНО

ИГРА 18+

pack

7.3

RePack

MK11

7.7

RePack

jed

7.8

RePack

fifa19

8.5

RePack

RDR2

RePack

NEED FOR SPEED™ PAYBACK

5 сезон

9 сезон

Бесстыжие 9 сезон

Все сериалы

все сериалы на PB.wtf

RePack

FAR CRY 5

Anonymous, доброй ночи, мы катастрофически не успеваем собрать деньги на оплату серверов, помогите нам пожалуйста 5,10,15р., для нас важна любая помощь . В качестве благодарности мы отключим Вам всю рекламу на сайте (укажите свой ник в строку Ваше имя)!

×
  
Magnet ссылка

Demis Roussos - The Video Hits Collection [2016 г., Прогрессивный рок, Фолк/Этника, Поп-музыка, WEBRip, Оригинальный] pb.wtf

Demis Roussos - The Video Hits Collection [2016 г., Прогрессивный рок, Фолк через торрент pb.wtf

Размер: 767 MB | Добавлен: 2 года 10 мес. назад | Торрент скачан:21 раз
Смотреть онлайн Demis Roussos - The Video Hits Collection [2016 г., Прогрессивный рок, Фолк | Скачать    Ребята, помогите собрать деньги на оплату серверов!!!

16-01-2019 07:20 Demis Roussos - The Video Hits Collection [2016 г., Прогрессивный рок, Фолк Скачать торрент  

Demis Roussos - The Video Hits Collection
Исполнитель:Demis Roussos
Год выпуска: 2016
Страна: Россия Студия: MOM RecordsHD
Жанр: Прогрессивный рок, Фолк/Этника, Поп-музыка
Продолжительность: 01:15:07
Перевод: Оригинальный

01. From Souvenirs To Souvenirs
02. Goodbye My Love, Goodbye
03. My Only Fascination
04. Island of Love
05. Forever & Ever
06. I' ll Be Your Friend
07. Race To The End
08. Loving You
09. Time
10. Schön wie Mona Lisa
11. What Child is This
12. We Shall Dance
13. Life in The City
14. My Reason
15. Young Love ( feat Drafi Deutscher )
16. Lost in Love ( feat Florence Warner )
17. Tropicana Bay ( feat Nancy Boyd )
18. Summerwine ( feat Nancy Boyd )
19. Follow Me
20. Goodbye My Love, Goodbye
Об исполнителе: Демис Руссос – это один из самых известных мировых исполнителей, выступавший не один десяток лет на самом высоком уровне. Настоящее имя исполнителя Артемиос Вентурис Руссос. Он вызывал огромное уважение за свой многолетний труд и огромный вклад в музыкальную индустрию. У него множество поклонников по всему миру, в том числе России и других странах СНГ.

Качество: WEBRip
Формат: AVI
Видео кодек: XviD
Аудио кодек: MP3
Видео: 704x400 (1.76:1), 23.976 fps, XviD build 65 ~1289 kbps avg, 0.19 bit/pixel
Аудио#1: 44.100 kHz, MPEG Layer 3, 2 ch, ~128.00 kbps avg

Общее
Полное имя : D:\torrent\Новая загрузка(док)\Demis.Roussos-The.Video.Hits.Collection.2016.avi
Формат : AVI
Формат/Информация : Audio Video Interleave
Размер файла : 767 Мбайт
Продолжительность : 1 ч. 15 м.
Общий поток : 1427 Кбит/сек
Программа кодирования : VirtualDubMod 1.5.10.3 | www.virtualdub-fr.org || (build 2550/release)
Библиотека кодирования : VirtualDub build 35491/release

Видео
Идентификатор : 0
Формат : MPEG-4 Visual
Профиль формата : Advanced Simple@L5
Настройки формата : BVOP2 / Custom Matrix
Параметр BVOP формата : 2
Параметр QPel формата : Нет
Параметр GMC формата : Без точки перехода
Параметр матрицы формата : Выборочная
Идентификатор кодека : XVID
Идентификатор кодека/Подсказка : XviD
Продолжительность : 1 ч. 15 м.
Битрейт : 1290 Кбит/сек
Ширина : 704 пикселя
Высота : 400 пикселей
Соотношение сторон : 16:9
Частота кадров : 23,976 (24000/1001) кадра/сек
Частота кадров в оригинале : 23,976 (23976/1000) кадра/сек
Цветовое пространство : YUV
Субдискретизация насыщенности : 4:2:0
Битовая глубина : 8 бит
Тип развёртки : Прогрессивная
Метод сжатия : С потерями
Бит/(Пиксели*Кадры) : 0.191
Размер потока : 693 Мбайт (90%)
Библиотека кодирования : XviD 65

Аудио
Идентификатор : 1
Формат : MPEG Audio
Версия формата : Version 1
Профиль формата : Layer 3
Настройки формата : Joint stereo / MS Stereo
Идентификатор кодека : 55
Идентификатор кодека/Подсказка : MP3
Продолжительность : 1 ч. 15 м.
Вид битрейта : Постоянный
Битрейт : 128 Кбит/сек
Каналы : 2 канала
Частота : 44,1 КГц
Метод сжатия : С потерями
Задержка видео : 5 мс.
Размер потока : 68,8 Мбайт (9%)
Выравнивание : Разделение по промежуткам
Продолжительность промежутка : 42 мс. (1,00 видеокадр)
Время предзагрузки промежутка : 500 мс.
Библиотека кодирования : LAME3.99.5
pb.wtf



Скачать Demis Roussos - The Video Hits Collection [2016 г., Прогрессивный рок, Фолк через торрент https://pic1.kartinco.top/images/12/nrfim.jpg Скачать, смотреть онлайн Demis Roussos - The Video Hits Collection [2016 г., Прогрессивный рок, Фолк бесплантно в хорошем качестве Трэклист From Souvenirs To Souvenirs Goodbye My Love, Goodbye My Only Fascination Island of Love Forever & Ever I' ll ... 9 10 3
Торрент: Зарегистрирован [2019-01-16 07:20] · скачан: 21 раз
Статус: √ проверено
Размер: 767 MB
Как cкачать? Как скачать Demis Roussos - The Video Hits Collection [2016 г., Прогрессивный рок, Фолк через торрент | UTorrent

28-11-2019 20:33  

Отключить всю рекламу на сайте

    Дорогой пользователь! Огромная просьба, поблагодарите релизера, оцените раздачу и оставьте свои комментарий, если Вы скачали Demis Roussos - The Video Hits Collection [2016 г., Прогрессивный рок, Фолк через торрент бесплатно!
    Комментировать посты могут только пользователи прошедшие не сложную регистрацию
    Показать сообщения:    

    Demis Roussos - The Video Hits Collection [2016 г., Прогрессивный рок, Фолк через торрент
    Скачать бесплатно Demis Roussos - The Video Hits Collection [2016 г., Прогрессивный рок, Фолк
    Demis Roussos - The Video Hits Collection [2016 г., Прогрессивный рок, Фолк скачать торрент
    Demis Roussos - The Video Hits Collection [2016 г., Прогрессивный рок, Фолк смотреть онлайн
    Cкачать фильм Demis Roussos - The Video Hits Collection [2016 г., Прогрессивный рок, Фолк бесплатно
    Demis Roussos - The Video Hits Collection [2016 г., Прогрессивный рок, Фолк скачать торрент в хорошем качестве
    Demis Roussos - The Video Hits Collection [2016 г., Прогрессивный рок, Фолк смотреть онлайн бесплатно в хорошем качестве


    Вы не можете начинать темы
    Вы не можете отвечать на сообщения
    Вы не можете редактировать свои сообщения
    Вы не можете удалять свои сообщения
    Вы не можете голосовать в опросах
    Вы не можете прикреплять файлы к сообщениям
    Вы можете скачивать файлы