Ссылка на приватное зеркало нашего сайта всего за 1$. Внимание количество ограничено!!!

2 сезон

iTunes

1 сезон

1

2 сезон

2 сезон

iTunes

1 сезон

RePack

30

Новинка

ВАЖНО

ИГРА 18+

pack

RePack

MK11
pack

Забери бонус

RePack

jed

!!Акция!!

Alien_Rage

RePack

fifa19

RePack

Assassins Creed: Odyssey

RePack

NEED FOR SPEED™ PAYBACK

4 сезон

9 сезон

Бесстыжие 9 сезон

Все сериалы

все сериалы на PB.wtf

RePack

FAR CRY 5
  

Мамаша / SMILF / Сезон: 2 / Серии: 1-6 из 10 (Фрэнки Шоу) [2019, комедия, WEB-DL 720p] [MVO] (Jaskier) pb.wtf

Мамаша через торрент pb.wtf

Размер: 7.06 GB | Добавлен: 1 год 8 мес. назад | Торрент скачан:0 раз
Скачать  

16-01-2019 09:29 Мамаша Скачать торрент  

Мамаша / SMILF
«***»

Страна: США
Год выпуска: 2019
Жанр: комедия
Продолжительность: ~ 00:30:00 серия
Перевод: Профессиональный (многоголосый закадровый) | Jaskier
Режиссер: Фрэнки Шоу, Лесли Хэдланд, Эми Йорк Рубин
В главных ролях: Фрэнки Шоу, Мигель Гомес, Рози О Доннелл, Самара Уивинг, Блейк Кларк, Рэйвен Гудвин, Конни Бриттон, Шери Рене Скотт и др.
Описание фильма:
История о девушке, которой не так давно исполнилось двадцать лет, и у нее на руках годовалый ребенок. Несмотря на большое количество проблем, молодая мамаша уверена — она обязательно сможет обрести счастье. Но пока у нее это получается не очень хорошо, ведь молодые люди не хотят с ней знакомиться, узнав о ребенке.
rating

Качество: WEB-DL 720p
Формат: MKV
Видео: 1280x720 (16:9) | X264 | ~2500 kbps | 23.976 fps
Аудио 1: AC3 | 48 KHz | 5.1 (Front: L С R Side: L R) + LFE | ~384 kbps [RUS]
Аудио 2: AC3 | 48 KHz | 5.1 (Front: L С R Side: L R) + LFE | ~384 kbps [ENG]
Субтитры: английские
Переведено и озвучено: студией Jaskier

Общее
Уникальный идентификатор : 194343379036098159550036558171117054179 (0x92352C5E8FE0E9A991858F306B49E8E3)
Полное имя : H:\JASKiER\SMILF. Season 2 (WEB-DL l 720p l Jaskier)\SMILF.S02E01.720p.WEB-DL.DD5.1.H.264-Jaskier.mkv
Формат : Matroska
Версия формата : Version 2
Размер файла : 692 Мбайт
Продолжительность : 30 м. 23 с.
Общий поток : 3182 Кбит/сек
Дата кодирования : UTC 2019-01-16 07:31:52
Программа кодирования : mkvmerge v7.8.0 ('River Man') 32bit built on Apr 3 2015 12:11:22
Библиотека кодирования : libebml v1.3.1 + libmatroska v1.4.2

Видео
Идентификатор : 1
Формат : AVC
Формат/Информация : Advanced Video Codec
Профиль формата : High@L3.1
Настройки формата : CABAC / 5 Ref Frames
Параметр CABAC формата : Да
Параметр RefFrames формата : 5 кадров
Идентификатор кодека : V_MPEG4/ISO/AVC
Продолжительность : 30 м. 23 с.
Битрейт : 2350 Кбит/сек
Ширина : 1280 пикселей
Высота : 720 пикселей
Соотношение сторон : 16:9
Режим частоты кадров : Постоянный
Частота кадров : 23,976 (24000/1001) кадра/сек
Цветовое пространство : YUV
Субдискретизация насыщенности : 4:2:0
Битовая глубина : 8 бит
Тип развёртки : Прогрессивная
Бит/(Пиксели*Кадры) : 0.106
Размер потока : 511 Мбайт (74%)
Язык : English
Default : Да
Forced : Нет
Цветовой диапазон : Limited
Основные цвета : BT.709
Характеристики трансфера : BT.709
Коэффициенты матрицы : BT.709

Аудио #1
Идентификатор : 2
Формат : AC-3
Формат/Информация : Audio Coding 3
Коммерческое название : Dolby Digital
Идентификатор кодека : A_AC3
Продолжительность : 30 м. 23 с.
Вид битрейта : Постоянный
Битрейт : 384 Кбит/сек
Каналы : 6 каналов
Channel layout : L R C LFE Ls Rs
Частота : 48,0 КГц
Частота кадров : 31,250 кадров/сек (1536 SPF)
Битовая глубина : 16 бит
Метод сжатия : С потерями
Размер потока : 83,5 Мбайт (12%)
Заголовок : Jaskier
Язык : Russian
ServiceKind/String : Complete Main
Default : Да
Forced : Нет

Аудио #2
Идентификатор : 3
Формат : AC-3
Формат/Информация : Audio Coding 3
Коммерческое название : Dolby Digital
Идентификатор кодека : A_AC3
Продолжительность : 30 м. 23 с.
Вид битрейта : Постоянный
Битрейт : 384 Кбит/сек
Каналы : 6 каналов
Channel layout : L R C LFE Ls Rs
Частота : 48,0 КГц
Частота кадров : 31,250 кадров/сек (1536 SPF)
Битовая глубина : 16 бит
Метод сжатия : С потерями
Размер потока : 83,5 Мбайт (12%)
Язык : English
ServiceKind/String : Complete Main
Default : Нет
Forced : Нет

Текст
Идентификатор : 4
Формат : UTF-8
Идентификатор кодека : S_TEXT/UTF8
Идентификатор кодека/Информация : UTF-8 Plain Text
Язык : English
Default : Нет
Forced : Нет

скриншот  скриншот  скриншот  

Раздача ведётся путём добавления новых серий; при каждом добавлении создаётся новый торрент.
Чтобы начать докачку новой серии, пользователям необходимо сделать следующее:
1. остановить скачивание,
2. удалить старый торрент у себя из клиента (старые серии удалять не надо),
3. скачать новый торрент и запустить его у себя в клиенте вместо старого, при этом указать клиенту путь в старую папку, куда и должно происходить скачивание новых серий.

Ваш клиент при этом должен произвести хеширование (проверку) старой папки (если не производит сам - помогите ему сделать это), и будет докачивать только те серии которых у вас ещё нет. Старые серии при этом не удаляются, а продолжают раздаваться!

Eсли вы уже удалили старые серии, то предотвратить повторную закачку старых серий можно, отжав галочку в соответствующих местах при запуске нового торрента. По возможности, желательно не удалять старые серии как можно дольше, чтобы релизёр не столько продолжал раздавать старые серии, а смог сконцентрироваться на новых.

Совет для тех, кто не хочет ждать перехеширования:
Создайте ещё одну папку рядом с папкой сериала (рядом, а не в ней!!!). Каждую новую серию после удачной загрузки копируйте в новую папку так чтобы ваша основная папка всегда была пуста. Когда ваш новый торрент предложит вам закачать все файлы, выберете только последнюю. Для сидирования же укажите адрес новой папки.

Как закачать отдельный файл из торрента или докачать ранее пропущенные файлы торрента!

1. Открыть торрент
2. Снять галки с тех файлов торрента, которые мы не хотим закачивать. Оставляем только на нужных нам файлах (файле).
3. Нажать О.К.

В клиенте utorrent

Инструкция

1) Открыть торрент


2) Снять галки с тех файлов торрента, которые мы не хотим закачивать:

* либо вручную, снимая с каждого файла галку( скрин №1)
* либо, нажав кнопку "Снять метки (Select None)", сняв сразу со всех файлов(скрин №2)
№1

№2

Оставляем только на нужных нам файлах (файле).

3)Нажать О.К

Приятного просмотра!!!pb.wtf



Скачать Мамаша через торрент https://st.kp.yandex.net/images/movies/awardGoldenGlobeGray.png Скачать фильм Мамаша через торрент бесплантно в хорошем качестве Описание фильма:История о девушке, которой не так давно исполнилось двадцать лет, и у нее на руках годовалый ребенок. Несмотря на большое ... 5 10 1
Торрент: Зарегистрирован [2019-03-11 19:32] · скачан: 0 раз
Статус: √ проверено
Размер: 7.06 GB
Как cкачать? Как скачать Мамаша через торрент | qTorrent

% Раздел Тема Автор DL S | L
Зарубежные сериалы [ 2.06 GB ] Мамаша / SMILF / Сезон: 2 / Серии: 1-6 из 10 [2019 WEB-DLRip] [MVO] killermax2013 Скачать
1 | 0

28-11-2019 20:33  

Отключить всю рекламу на сайте

    Дорогой пользователь! Огромная просьба, поблагодарите релизера, оцените раздачу и оставьте свои комментарий, если Вы скачали Мамаша через торрент бесплатно! Внесите свою лепту в развитие PiratBit!
    Комментировать посты могут только пользователи прошедшие не сложную регистрацию
    Показать сообщения:    

    Мамаша через торрент
    Скачать бесплатно Мамаша
    Мамаша скачать торрент
    Мамаша смотреть онлайн
    Cкачать фильм Мамаша бесплатно
    Мамаша скачать торрент в хорошем качестве
    Мамаша смотреть онлайн бесплатно в хорошем качестве


    Вы не можете начинать темы
    Вы не можете отвечать на сообщения
    Вы не можете редактировать свои сообщения
    Вы не можете удалять свои сообщения
    Вы не можете голосовать в опросах
    Вы не можете прикреплять файлы к сообщениям
    Вы можете скачивать файлы