Всегда рабочее зеркало без VPN и Proxy просто перед .vidak.icu напиши любое слово или цифру, Пример http://jdh6.vidak.icu

MVO

Лицензия

1 сезон

1

1 сезон

iTunes

1 сезон

13

1 сезон

Deluxe

pack

Рекомендуем

Пиратка

30

ВАЖНО

RePack

MK11

RePack

jed

RePack

fifa19

RePack

RDR2

RePack

NEED FOR SPEED™ PAYBACK

Кинопоиск HD

6 сезон

 Острые козырьки 6 сезон

Все сериалы

все сериалы на PB.wtf

RePack

FAR CRY 5

Anonymous, нам критически не хватает 2100 руб. на оплату серверов и переферии за МАЙ, помоги нам пожалуйста, вся надежда только на тебя. В благодарность мы отключим тебе всю рекламу на сайте!

×
  
Magnet ссылка

Tomb Raider: Лара Крофт / Tomb Raider (Роар Утхауг) [2018, фэнтези, боевик, приключения, UHD BDRemux 2160p] DUB [Dolby Vision] pb.wtf

Tomb Raider: Лара Крофт через торрент pb.wtf

Размер: 43.55 GB | Добавлен: 3 года 5 мес. назад | Торрент скачан:117 раз
Смотреть онлайн Tomb Raider: Лара Крофт | Скачать    Ребята, помогите собрать деньги на оплату серверов!!!

16-01-2019 11:09 Tomb Raider: Лара Крофт Скачать торрент  

Tomb Raider: Лара Крофт / Tomb Raider

Год выпуска: 2018
Страна: Великобритания, США
Жанр: фэнтези, боевик, приключения
Продолжительность: 01:57:50
Перевод: Дублированный
Режиссер: Роар Утхауг
В ролях:

Алисия Викандер (Lara Croft), Доминик Уэст (Richard Croft), Уолтон Гоггинс (Mathias Vogel), Дэниэл Ву (Lu Ren), Кристин Скотт Томас (Ana Miller), Дерек Джекоби (Mr. Yaffe), Александр Виллауме (Lieutenant), Тамер Барджаг (Mercenary), Эдриан Коллинз (Mercenary), Кинэн Эррисон (Mercenary), Андриан Мазив (Mercenary), Милтон Шорр (Mercenary)
Описание:
Лара Крофт - весьма самостоятельная дочь эксцентричного искателя приключений, который пропал, едва она стала подростком. Теперь ей двадцать один, она бесцельно проживает свою жизнь, курьером рассекая на байке по забитым улицам восточного Лондона. Решительно настроенная пробиться сама, она отказывается брать на себя руководство глобальной империей отца, столь же категорично отвергая мысль о том, что он действительно пропал. Слыша советы о том, что ей нужно смириться с этим фактом и жить дальше после семи лет бесплодных поисков, Лара уже и сама не понимает, что же заставляет ее распутывать обстоятельства его таинственного исчезновения.
Рейтинг:

MPAA: PG-13 - Детям до 13 лет просмотр не желателен
Качество: UHD BDRemux 2160p | Dolby Vision
Формат: MP4
Видео: HEVC, HDR, 52418 Кбит/с, 3840x2160, 23.976 Кадр/с
Аудио: AC-3, 48.0 kHz, 6 ch, 448 kb/s, (Russian) | Дублированный |
Данный вид релизов (контейнер MP4) предназначен для встроенного в ТВ (соответственно, с поддержкой DV) плеер.
Т.Е. Можно использовать как USB flash/HDD, так и DLNA / Plex - подобные сервисы/программы. дополнительный-внешний плеер не обязателен.

Внимание!
На моделях LG 2016 возможны сюрпризы "через раз", 2017-2018 должно идти без сюрпризов )
Общее
Полное имя : Tomb.Raider.2018.UHD.BDRemux.2160p.DV.IVA.RUS.ExKinoRay.mp4
Формат : MPEG-4
Профиль формата : Base Media / Version 2
Идентификатор кодека : mp42 (mp42/iso6/isom/msdh/dby1)
Размер файла : 43,6 Гбайт
Продолжительность : 1 ч. 57 м.
Общий поток : 52,9 Мбит/сек
Дата кодирования : UTC 2019-01-16 01:26:00
Дата пометки : UTC 2019-01-16 01:26:00

Видео #1
Идентификатор : 1
Формат : HEVC
Формат/Информация : High Efficiency Video Coding
Коммерческое название : HDR10
Профиль формата : Main 10@L5.1@High
Идентификатор кодека : hev1
Идентификатор кодека/Информация : High Efficiency Video Coding
Продолжительность : 1 ч. 57 м.
Битрейт : 52,4 Мбит/сек
Ширина : 3840 пикселей
Высота : 2160 пикселей
Соотношение сторон : 16:9
Режим частоты кадров : Постоянный
Частота кадров : 23,976 (24000/1001) кадра/сек
Цветовое пространство : YUV
Субдискретизация насыщенности : 4:2:0 (Type 2)
Битовая глубина : 10 бит
Бит/(Пиксели*Кадры) : 0.264
Размер потока : 43,1 Гбайт (99%)
Default : Нет
Дата кодирования : UTC 2019-01-16 01:26:00
Дата пометки : UTC 2019-01-16 01:26:00
Цветовой диапазон : Limited
Основные цвета : BT.2020
Характеристики трансфера : PQ
Коэффициенты матрицы : BT.2020 non-constant
MasteringDisplay_ColorPrimaries : BT.2020
MasteringDisplay_Luminance : min: 0.0050 cd/m2, max: 4000 cd/m2
MaxCLL : 2971 cd/m2
MaxFALL : 112 cd/m2
Codec configuration box : hvcC

Видео #2
Идентификатор : 2
Формат : HEVC
Формат/Информация : High Efficiency Video Coding
Коммерческое название : HDR10
Профиль формата : Main 10@L5.1@High
Dolby Vision : 1.0, dvhe.07.06, EL+RPU
Идентификатор кодека : dvhe
Идентификатор кодека/Информация : High Efficiency Video Coding with Dolby Vision
Продолжительность : 1 ч. 57 м.
Битрейт : 65,7 Кбит/сек
Ширина : 1920 пикселей
Высота : 1080 пикселей
Соотношение сторон : 16:9
Режим частоты кадров : Постоянный
Частота кадров : 23,976 (24000/1001) кадра/сек
Цветовое пространство : YUV
Субдискретизация насыщенности : 4:2:0 (Type 2)
Битовая глубина : 10 бит
Бит/(Пиксели*Кадры) : 0.001
Размер потока : 55,3 Мбайт (0%)
Default : Нет
Дата кодирования : UTC 2019-01-16 01:26:00
Дата пометки : UTC 2019-01-16 01:26:00
Цветовой диапазон : Limited
Основные цвета : BT.2020
Характеристики трансфера : PQ
Коэффициенты матрицы : BT.2020 non-constant
MasteringDisplay_ColorPrimaries : BT.2020
MasteringDisplay_Luminance : min: 0.0050 cd/m2, max: 4000 cd/m2
Codec configuration box : hvcC+dvcC

Аудио
Идентификатор : 3
Формат : AC-3
Формат/Информация : Audio Coding 3
Коммерческое название : Dolby Digital
Идентификатор кодека : ac-3
Продолжительность : 1 ч. 57 м.
Вид битрейта : Постоянный
Битрейт : 448 Кбит/сек
Каналы : 6 каналов
Channel layout : L R C LFE Ls Rs
Частота : 48,0 КГц
Частота кадров : 31,250 кадров/сек (1536 SPF)
Битовая глубина : 16 бит
Метод сжатия : С потерями
Размер потока : 378 Мбайт (1%)
Язык : Russian
ServiceKind/String : Complete Main
Default : Нет
Дата кодирования : UTC 2019-01-16 01:26:00
Дата пометки : UTC 2019-01-16 01:26:00
pb.wtf



Скачать Tomb Raider: Лара Крофт через торрент https://d.radikal.ru/d04/1901/99/d194788b5784.png Скачать, смотреть онлайн Tomb Raider: Лара Крофт бесплантно в хорошем качестве Описание: Лара Крофт - весьма самостоятельная дочь эксцентричного искателя приключений, который пропал, едва она стала подростком. Теперь ... 10 10 4
Торрент: Зарегистрирован [2019-01-16 11:09] · скачан: 117 раз
Статус: √ проверено
Размер: 43.55 GB
Как cкачать? Как скачать Tomb Raider: Лара Крофт через торрент | UTorrent

% Раздел Тема Автор DL S | L
Фильмы [HD 720p, 1080p] (Хороший звук DUB, MVO) [ 7.31 GB ] Лара Крофт: Расхитительница гробниц / Lara Croft: Tomb Raider [2001 BDRip-HEVC 1080p ] DUB+DVO+AVO bober100 Скачать
1 | 0
Ultra HD (UHD: 2K, 4K, 8K) — видео сверхвысокой чёткости [ 51.69 GB ] Лара Крофт: Расхитительница гробниц 2 – Колыбель жизни / Lara Croft Tomb Raider: The Cradle of Life [2003 UHD BDRemux 2160p] DUB [Dolby Vision] sheker187 Скачать
1 | 0
Ultra HD (UHD: 2K, 4K, 8K) — видео сверхвысокой чёткости [ 45.52 GB ] Лара Крофт: Расхитительница гробниц / Lara Croft: Tomb Raider [2001 UHD BDRemux 2160p] DUB [Dolby Vision] sheker187 Скачать
1 | 0
Ultra HD (UHD: 2K, 4K, 8K) — видео сверхвысокой чёткости [ 30.06 GB ] Tomb Raider: Лара Крофт / Tomb Raider [2018 UHD BDRip 2160p] [SDR] DUB + MVO + AVO sheker187 Скачать
1 | 0
Фильмы 2018 [DVDrip, WEB-DLRip, HDrip] (DUB, MVO) [ 746 MB ] Tomb Raider: Лара Крофт / Tomb Raider [2018 BDRip] DUB [] bober100 Скачать
1 | 0
Фильмы (Blu-ray, BD-Remux, HDDVD) [ 37.68 GB ] Tomb Raider: Лара Крофт / Tomb Raider [2018 BD Remux 1080p] [2D 3D] DUB [] bober100 Скачать
1 | 0
Фильмы [HD 720p, 1080p] (Хороший звук DUB, MVO) [ 8.98 GB ] Tomb Raider: Лара Крофт / Tomb Raider [2018 BDRip-HEVC 1080p 10 Bit] AVO [BadBajo] +MVO [HDrezka Studio] +DUB [] bober100 Скачать
2 | 0

28-11-2019 20:33  

Отключить всю рекламу на сайте

29-10-2020 01:24 Tomb Raider: Лара Крофт Скачать торрент  

пожалуйста .встаньте на раздачуpb.wtf



    Дорогой пользователь! Огромная просьба, поблагодарите релизера, оцените раздачу и оставьте свои комментарий, если Вы скачали Tomb Raider: Лара Крофт через торрент бесплатно!
    Комментировать посты могут только пользователи прошедшие не сложную регистрацию
    Показать сообщения:    

    Tomb Raider: Лара Крофт через торрент
    Скачать бесплатно Tomb Raider: Лара Крофт
    Tomb Raider: Лара Крофт скачать торрент
    Tomb Raider: Лара Крофт смотреть онлайн
    Cкачать фильм Tomb Raider: Лара Крофт бесплатно
    Tomb Raider: Лара Крофт скачать торрент в хорошем качестве
    Tomb Raider: Лара Крофт смотреть онлайн бесплатно в хорошем качестве


    Вы не можете начинать темы
    Вы не можете отвечать на сообщения
    Вы не можете редактировать свои сообщения
    Вы не можете удалять свои сообщения
    Вы не можете голосовать в опросах
    Вы не можете прикреплять файлы к сообщениям
    Вы можете скачивать файлы