2 сезон

iTunes

MVO

1

2 сезон

iTunes

iTunes

1 сезон

RePack

30

Новинка

ВАЖНО

ИГРА 18+

pack

RePack

MK11
pack

Легкие деньги

RePack

jed

RePack

fifa19

RePack

RDR2

RePack

NEED FOR SPEED™ PAYBACK

4 сезон

9 сезон

Бесстыжие 9 сезон

Все сериалы

все сериалы на PB.wtf

RePack

FAR CRY 5

Anonymous, доброй ночи, мы не успеваем собрать деньги на оплату серверов за декабрь и январь, помогите нам пожалуйста в это трудное время. В качестве благодарности мы отключим Вам всю рекламу на сайте (укажите свой ник в строку Ваше имя)!

×
  
Magnet ссылка

Джуманджи: Зов джунглей / Jumanji: Welcome to the Jungle (Джейк Кэздан) [2017, фэнтези, боевик, комедия, приключения, семейный, UHD BDRemux 2160p] DUB [Dolby Vision] pb.wtf

Джуманджи: Зов джунглей через торрент pb.wtf

Размер: 39.6 GB | Добавлен: 2 года назад | Торрент скачан:63 раза
Скачать  

16-01-2019 11:17 Джуманджи: Зов джунглей Скачать торрент  

Джуманджи: Зов джунглей / Jumanji: Welcome to the Jungle«Осторожно, засосёт»
Год выпуска: 2017
Страна: США
Жанр: Фэнтези, боевик, комедия, приключения, семейный
Продолжительность: 01:59:03
Перевод: Дублированный [Лицензия]
Режиссер: Джейк Кэздан
В ролях:

Дуэйн Джонсон (Spencer), Кевин Харт (Fridge), Джек Блэк (Bethany), Карен Гиллан (Martha), Риз Дэрби (Nigel), Бобби Каннавале (Van Pelt), Ник Джонас (Alex), Алекс Вулф (Young Spencer), Сер’Дариус Блэйн (Young Fridge), Мэдисон Исман (Young Bethany), Морган Тернер (Young Martha), Шон Бакстон (Jogger)
Описание:
Четверо подростков оказываются внутри игры «Джуманджи». Их ждет схватка с носорогами, черными мамбами, а на каждом шагу будет подстерегать бесконечная череда ловушек и головоломок. Чтобы пройти игру и остаться в живых, им придется перевоплотиться в персонажей игры: робкий и застенчивый Спенсер превращается в отважного и сильного исследователя, здоровяк Фридж — в коротышку, модница и красавица Беттани — в профессора, а неуклюжая и нескладная Марта становится бесстрашной и ловкой амазонкой. Друзьям придется привыкнуть к совершенно новым и таким непривычным для себя ролям и найти дорогу домой.
Рейтинг:

Качество: UHD BDRemux 2160p | Dolby Vision
Формат: MP4
Видео: HEVC, 46.8 Мбит/с, 3840x2160
Аудио: Dolby Digital Audio Russian 640 kbps 5.1 / 48 kHz / 640 kbps | Лицензия
Данный вид релизов (контейнер MP4) предназначен для встроенного в ТВ (соответственно, с поддержкой DV) плеер.
Т.Е. Можно использовать как USB flash/HDD, так и DLNA / Plex - подобные сервисы/программы. дополнительный-внешний плеер не обязателен.

Внимание!
На моделях LG 2016 возможны сюрпризы "через раз", 2017-2018 должно идти без сюрпризов )
► Фильм посвящён памяти Робина Уильямса (1951-2014), сыгравшего главную роль в первом «Джуманджи».
► Съёмки фильма проходили на Гавайях.
► "Джуманджи» (Джо Джонстон, 1995) является одним из самых любимых фильмов актрисы Карен Гиллан.
Общее
Полное имя : Jumanji.Welcome.To.The.Jungle.2017.UHD.BDRemux.2160p.DV.IVA.RUS.ExKinoRay.mp4
Формат : MPEG-4
Профиль формата : Base Media / Version 2
Идентификатор кодека : mp42 (mp42/iso6/isom/msdh/dby1)
Размер файла : 39,6 Гбайт
Продолжительность : 1 ч. 59 м.
Общий поток : 47,6 Мбит/сек
Дата кодирования : UTC 2019-01-16 01:06:32
Дата пометки : UTC 2019-01-16 01:06:32

Видео #1
Идентификатор : 1
Формат : HEVC
Формат/Информация : High Efficiency Video Coding
Коммерческое название : HDR10
Профиль формата : Main 10@L5.1@High
Идентификатор кодека : hev1
Идентификатор кодека/Информация : High Efficiency Video Coding
Продолжительность : 1 ч. 59 м.
Битрейт : 46,8 Мбит/сек
Ширина : 3840 пикселей
Высота : 2160 пикселей
Соотношение сторон : 16:9
Режим частоты кадров : Постоянный
Частота кадров : 23,976 (24000/1001) кадра/сек
Цветовое пространство : YUV
Субдискретизация насыщенности : 4:2:0 (Type 2)
Битовая глубина : 10 бит
Бит/(Пиксели*Кадры) : 0.236
Размер потока : 39,0 Гбайт (98%)
Default : Нет
Дата кодирования : UTC 2019-01-16 01:06:32
Дата пометки : UTC 2019-01-16 01:06:32
Цветовой диапазон : Limited
Основные цвета : BT.2020
Характеристики трансфера : PQ
Коэффициенты матрицы : BT.2020 non-constant
MasteringDisplay_ColorPrimaries : Display P3
MasteringDisplay_Luminance : min: 0.0050 cd/m2, max: 4000 cd/m2
MaxCLL : 2013 cd/m2
MaxFALL : 393 cd/m2
Codec configuration box : hvcC

Видео #2
Идентификатор : 2
Формат : HEVC
Формат/Информация : High Efficiency Video Coding
Коммерческое название : HDR10
Профиль формата : Main 10@L5.1@High
Dolby Vision : 1.0, dvhe.07.06, EL+RPU
Идентификатор кодека : dvhe
Идентификатор кодека/Информация : High Efficiency Video Coding with Dolby Vision
Продолжительность : 1 ч. 59 м.
Битрейт : 124 Кбит/сек
Ширина : 1920 пикселей
Высота : 1080 пикселей
Соотношение сторон : 16:9
Режим частоты кадров : Постоянный
Частота кадров : 23,976 (24000/1001) кадра/сек
Цветовое пространство : YUV
Субдискретизация насыщенности : 4:2:0 (Type 2)
Битовая глубина : 10 бит
Бит/(Пиксели*Кадры) : 0.003
Размер потока : 106 Мбайт (0%)
Default : Нет
Дата кодирования : UTC 2019-01-16 01:06:32
Дата пометки : UTC 2019-01-16 01:06:32
Цветовой диапазон : Limited
Основные цвета : BT.2020
Характеристики трансфера : PQ
Коэффициенты матрицы : BT.2020 non-constant
MasteringDisplay_ColorPrimaries : Display P3
MasteringDisplay_Luminance : min: 0.0050 cd/m2, max: 4000 cd/m2
Codec configuration box : hvcC+dvcC

Аудио
Идентификатор : 3
Формат : AC-3
Формат/Информация : Audio Coding 3
Коммерческое название : Dolby Digital
Идентификатор кодека : ac-3
Продолжительность : 1 ч. 59 м.
Вид битрейта : Постоянный
Битрейт : 640 Кбит/сек
Каналы : 6 каналов
Channel layout : L R C LFE Ls Rs
Частота : 48,0 КГц
Частота кадров : 31,250 кадров/сек (1536 SPF)
Битовая глубина : 16 бит
Метод сжатия : С потерями
Размер потока : 545 Мбайт (1%)
Язык : Russian
ServiceKind/String : Complete Main
Default : Нет
Дата кодирования : UTC 2019-01-16 01:06:32
Дата пометки : UTC 2019-01-16 01:06:32
pb.wtf



Скачать Джуманджи: Зов джунглей через торрент https://d.radikal.ru/d04/1901/99/d194788b5784.png Скачать фильм Джуманджи: Зов джунглей через торрент бесплантно в хорошем качестве Описание: Четверо подростков оказываются внутри игры «Джуманджи». Их ждет схватка с носорогами, черными мамбами, а на каждом шагу будет ... 10 10 2
Info! Золотая раздача, скачанное не засчитывается.
Торрент: Зарегистрирован [2019-01-16 11:17] · скачан: 63 раз
Статус: √ проверено
Размер: 39.6 GB
Как cкачать? Как скачать Джуманджи: Зов джунглей через торрент | UTorrent

% Раздел Тема Автор DL S | L
Фильмы (HD 720p, 1080p) (48-60 fps) [ 3.93 GB ] Джуманджи: Зов джунглей / Jumanji: Welcome to the Jungle [2017 BDRip 720p / 60 FPS ] от R.G. HD-Films slaventi-69 Скачать
2 | 0
Фильмы (HD 720p, 1080p) (48-60 fps) [ 12.14 GB ] Джуманджи: Зов джунглей / Jumanji: Welcome to the Jungle [2017 BDRip 1080p 60 fps] DUB [] bober100 Скачать
2 | 0
Фильмы (Blu-ray, BD-Remux, HDDVD) [ 27.06 GB ] Джуманджи: Зов джунглей / Jumanji: Welcome to the Jungle [2017 BDRemux 1080p] DUB + 2xAVO sheker187 Скачать
1 | 0
Фильмы (Blu-ray, BD-Remux, HDDVD) [ 40.24 GB ] Джуманджи: Зов джунглей / Jumanji: Welcome to the Jungle [2017 Blu-Ray EUR 1080p] DUB [] [2D 3D] bober100 Скачать
1 | 0
Фильмы (Blu-ray, BD-Remux, HDDVD) [ 38.02 GB ] Джуманджи: Зов джунглей / Jumanji: Welcome to the Jungle [2017 Blu-ray EUR 1080p] DUB [] bober100 Скачать
1 | 0
Фильмы 2017 [DVDrip, WEB-DLRip, HDrip] (DUB, MVO) [ 1.46 GB ] Джуманджи: Зов джунглей / Jumanji: Welcome to the Jungle [2017 BDRip] - [] Twi7ter Скачать
3 | 0
Ultra HD (UHD: 2K, 4K, 8K) — видео сверхвысокой чёткости [ 15.35 GB ] Джуманджи: Зов джунглей / Jumanji: Welcome to the Jungle [2017 UHD BDRip 2160p] DUB sheker187 Скачать
1 | 0

28-11-2019 20:33  

Отключить всю рекламу на сайте

    Дорогой пользователь! Огромная просьба, поблагодарите релизера, оцените раздачу и оставьте свои комментарий, если Вы скачали Джуманджи: Зов джунглей через торрент бесплатно! Внесите свою лепту в развитие PiratBit!
    Комментировать посты могут только пользователи прошедшие не сложную регистрацию
    Показать сообщения:    

    Джуманджи: Зов джунглей через торрент
    Скачать бесплатно Джуманджи: Зов джунглей
    Джуманджи: Зов джунглей скачать торрент
    Джуманджи: Зов джунглей смотреть онлайн
    Cкачать фильм Джуманджи: Зов джунглей бесплатно
    Джуманджи: Зов джунглей скачать торрент в хорошем качестве
    Джуманджи: Зов джунглей смотреть онлайн бесплатно в хорошем качестве


    Вы не можете начинать темы
    Вы не можете отвечать на сообщения
    Вы не можете редактировать свои сообщения
    Вы не можете удалять свои сообщения
    Вы не можете голосовать в опросах
    Вы не можете прикреплять файлы к сообщениям
    Вы можете скачивать файлы