Ссылка на приватное зеркало всего за 1$. Внимание количество ограничено!!!

OK

1+1

iTunes

мы

OK

1

WEB-DLRip

Джокер

Пифагор

Ведьмак / The Witcher сериал

iTunes

ПШазам

ОК

Оно 2

iTunes

30
pack

Вам бонус

ВАЖНО

!!Акция!!

Alien_RageХит недели

RePack

Resident Evil 21

ИГРА 18+

pack

RePack

jed

RePack

fifa19

RePack

Assassins Creed: Odyssey

RePack

NEED FOR SPEED™ PAYBACK

4 сезон

9 сезон

Бесстыжие 9 сезон

Все сериалы

все сериалы на PB.wtf

RePack

FAR CRY 5
  

Мститель / Ribenjyeo / Revenger (Ли Сын-вон) [2018, боевик, криминал, WEB-DL 1080p] MVO [@MUZOBOZ@] pb.wtf

Мститель через торрент pb.wtf

Раздают: 1 [ 0 KB/s ]
Размер: 4.42 GB | Добавлен: 1 год назад | Торрент скачан:244 раза
Скачать  

16-01-2019 12:07 Мститель Скачать торрент  

Мститель / Ribenjyeo / Revenger Год выпуска: 2018
Страна: Корея Южная
Жанр: боевик, криминал
Продолжительность: 01:42:57
Перевод: Любительский (многоголосый) | @MUZOBOZ@
Субтитры: отсутствуют

Режиссер: Ли Сын-вон

rating

В ролях:

Брюс Хан, Пак Хи-сун, Юн Джин-со, Ким Ин-гвон, Пак Чхоль-мин

Описание:

Чтобы отомстить за убийство семьи, мужчина едет на удаленный остров, где засел криминальный авторитет.

Качество: WEB-DL 1080p
Формат: MKV

Видео: h.264, 5 760 kb/s, 1920x804
Аудио#1: Русский, (AC3, 2 ch, 384 Кбит/с)
скриншот  скриншот  скриншот  

Общее
Уникальный идентификатор : 213579484718432567529100152174092691859 (0xA0ADE99A6D091091B87CC4FD824B2993)
Полное имя : D:\Revenger.2019.P.WEB-DL.1O8Op_KOSHARA.mkv
Формат : Matroska
Версия формата : Version 2
Размер файла : 4,42 Гбайт
Продолжительность : 1 ч. 42 м.
Режим общего битрейта : Переменный
Общий поток : 6146 Кбит/сек
Дата кодирования : UTC 2019-01-15 17:54:11
Программа кодирования : mkvmerge v8.3.0 ('Over the Horizon') 64bit
Библиотека кодирования : libebml v1.3.1 + libmatroska v1.4.2

Видео
Идентификатор : 1
Формат : AVC
Формат/Информация : Advanced Video Codec
Профиль формата : High@L4.1
Параметр CABAC формата : Да
Параметр RefFrames формата : 4 кадра
Идентификатор кодека : V_MPEG4/ISO/AVC
Продолжительность : 1 ч. 42 м.
Вид битрейта : Переменный
Битрейт : 5760 Кбит/сек
Максимальный битрейт : 6500 Кбит/сек
Ширина : 1920 пикселей
Высота : 804 пикселя
Соотношение сторон : 2,40:1
Режим частоты кадров : Постоянный
Частота кадров : 23,976 (24000/1001) кадра/сек
Стандарт вещания : Component
Цветовое пространство : YUV
Субдискретизация насыщенности : 4:2:0
Битовая глубина : 8 бит
Тип развёртки : Прогрессивная
Бит/(Пиксели*Кадры) : 0.152
Размер потока : 4,06 Гбайт (92%)
Default : Да
Forced : Нет
Цветовой диапазон : Limited
Основные цвета : BT.709
Характеристики трансфера : BT.709
Коэффициенты матрицы : BT.709

Аудио
Идентификатор : 2
Формат : AC-3
Формат/Информация : Audio Coding 3
Расширение режима : CM (complete main)
Параметр Endianness формата : Big
Идентификатор кодека : A_AC3
Продолжительность : 1 ч. 42 м.
Вид битрейта : Постоянный
Битрейт : 384 Кбит/сек
Каналы : 2 канала
Расположение каналов : Front: L R
Частота : 48,0 КГц
Частота кадров : 31,250 кадров/сек (1536 spf)
Метод сжатия : С потерями
Размер потока : 283 Мбайт (6%)
Default : Да
Forced : Нет

pb.wtf



Скачать Мститель через торрент https://d.radikal.ru/d18/1901/36/53bc23fbb62d.jpg Скачать фильм Мститель через торрент бесплантно в хорошем качестве Описание: Чтобы отомстить за убийство семьи, мужчина едет на удаленный остров, где засел криминальный ... 9.9 10 8
Торрент: Зарегистрирован [2019-01-16 12:07] · скачан: 244 раз
Статус: T временная
Размер: 4.42 GB
Как cкачать? Как скачать Мститель через торрент | qTorrent

% Раздел Тема Автор DL S | L
T Фильмы (мультфильмы) cо спонсором показа (Новинки AVI/MKV) [ 3.84 GB ] Мститель / Ribenjyeo / Revenger [2018 WEB-DL 720p] MVO [@MUZOBOZ@] bober100 Скачать
1 | 0
T Фильмы (мультфильмы) cо спонсором показа (Новинки AVI/MKV) [ 1.37 GB ] Мститель / Ribenjyeo / Revenger [2018 WEB-DLRip] MVO [@MUZOBOZ@] bober100 Скачать
1 | 0

28-11-2019 20:33  

Отключить всю рекламу на сайте

16-01-2019 12:53 Мститель Скачать торрент  

На первом скрине,она походу увидела то,что у него из ширинки вывалилось))) pb.wtf



16-01-2019 13:29 Мститель Скачать торрент  

корейские боевики очень качественные последнее время.забираю.спасибо.pb.wtf



18-01-2019 16:35 Мститель Скачать торрент  

Прочитал описание,всё коротко и понятно,чувак поехал на остров отомстить,можно даже не смотреть!pb.wtf



    Дорогой пользователь! Огромная просьба, поблагодарите релизера, оцените раздачу и оставьте свои комментарий, если Вы скачали Мститель через торрент бесплатно! Внесите свою лепту в развитие PiratBit!
    Комментировать посты могут только пользователи прошедшие не сложную регистрацию
    Показать сообщения:    

    Мститель через торрент
    Скачать бесплатно Мститель
    Мститель скачать торрент
    Мститель смотреть онлайн
    Cкачать фильм Мститель бесплатно
    Мститель скачать торрент в хорошем качестве
    Мститель смотреть онлайн бесплатно в хорошем качестве


    Вы не можете начинать темы
    Вы не можете отвечать на сообщения
    Вы не можете редактировать свои сообщения
    Вы не можете удалять свои сообщения
    Вы не можете голосовать в опросах
    Вы не можете прикреплять файлы к сообщениям
    Вы можете скачивать файлы