2 сезон

iTunes

MVO

1

2 сезон

iTunes

iTunes

1 сезон

RePack

30

Ultimate

ВАЖНО

ИГРА 18+

pack

RePack

MK11
pack

Легкие деньги

RePack

jed

RePack

fifa19

RePack

RDR2

RePack

NEED FOR SPEED™ PAYBACK

4 сезон

9 сезон

Бесстыжие 9 сезон

Все сериалы

все сериалы на PB.wtf

RePack

FAR CRY 5

Anonymous, добрый день, мы не успеваем собрать деньги на оплату серверов за декабрь и январь, помогите нам пожалуйста в это трудное время. В качестве благодарности мы отключим Вам всю рекламу на сайте (укажите свой ник в строку Ваше имя)!

×
  
Magnet ссылка

ABBA - The Video Hits Collection [2017 г., Pop, world, disco, pop-rock, WEBRip, Оригинальный] pb.wtf

ABBA - The Video Hits Collection через торрент pb.wtf

Размер: 1.31 GB | Добавлен: 2 года назад | Торрент скачан:53 раза
Скачать  

16-01-2019 13:43 ABBA - The Video Hits Collection Скачать торрент  

ABBA - The Video Hits Collection

Исполнитель: ABBA
Год выпуска: 2017
Страна: Россия Студия: MOM RecordsHD
Жанр: Pop, world, disco, pop-rock
Продолжительность: 01:27:16
Перевод: Оригинальный

О фильме: Легендарная группа "ABBA" была образована в 1972 году в Швеции. Но встретились участники группы ещё раньше, в 1970 году. Двое музыкантов, Бьорн Ульвеус и Бенни Андерссон решили заняться совместным творчеством, а впоследствии пригласили певиц Анни-Фрид Лингстад и Агнету Фельтског. Группа известна своими многочисленными хитами среди слушателей всего мира. Но просуществовала она всего 10 лет. Музыканты категорически отказались собираться заново из-за нежелания повторяться в музыке.

01. Waterloo
02. Honey, Honey
03. So Long
04. Dum Dum Diddle
05. I Do, I Do, I Do
06. S. O. S
07. Mama Mia
08. Knowing Me, Knowing You 09. Dancing Queen
10. Money, Money, Money
11. The Name Of The Game
12. Take a Change On Me
13. Eagle
14. Gimme! Gimme! (A Man After Midnight)
15. Does Your Mother Know
16. Chiquitita
17. Rock Me
18. Summer Night City
19. The Winner Takes It All
20. Super Trouper
21. On & On & On
22. The Day Before You Came
23. Cassandra
24. Under Attack
25. Thank You For The Music

Качество: WEBRip
Формат: AVI
Видео кодек: XviD
Аудио кодек: MP3
Видео: 704x400 (1.76:1), 25 fps, XviD build 65 ~2008 kbps avg, 0.28 bit/pixel
Аудио#1: 44.100 kHz, MPEG Layer 3, 2 ch, ~128.00 kbps avg
Общее
Полное имя : D:\torrent\Новая загрузка(док)\ABBA-The.Video.Hits.Collection.2017.avi
Формат : AVI
Формат/Информация : Audio Video Interleave
Размер файла : 1,31 Гбайт
Продолжительность : 1 ч. 27 м.
Общий поток : 2146 Кбит/сек
Программа кодирования : VirtualDubMod 1.5.10.3 | www.virtualdub-fr.org || (build 2550/release)
Библиотека кодирования : VirtualDub build 35491/release

Видео
Идентификатор : 0
Формат : MPEG-4 Visual
Профиль формата : Advanced Simple@L5
Настройки формата : BVOP2 / Custom Matrix
Параметр BVOP формата : 2
Параметр QPel формата : Нет
Параметр GMC формата : Без точки перехода
Параметр матрицы формата : Выборочная
Идентификатор кодека : XVID
Идентификатор кодека/Подсказка : XviD
Продолжительность : 1 ч. 27 м.
Битрейт : 2009 Кбит/сек
Ширина : 704 пикселя
Высота : 400 пикселей
Соотношение сторон : 16:9
Частота кадров : 25,000 кадров/сек
Цветовое пространство : YUV
Субдискретизация насыщенности : 4:2:0
Битовая глубина : 8 бит
Тип развёртки : Прогрессивная
Метод сжатия : С потерями
Бит/(Пиксели*Кадры) : 0.285
Размер потока : 1,22 Гбайт (94%)
Библиотека кодирования : XviD 65

Аудио
Идентификатор : 1
Формат : MPEG Audio
Версия формата : Version 1
Профиль формата : Layer 3
Настройки формата : Joint stereo / MS Stereo
Идентификатор кодека : 55
Идентификатор кодека/Подсказка : MP3
Продолжительность : 1 ч. 27 м.
Вид битрейта : Постоянный
Битрейт : 128 Кбит/сек
Каналы : 2 канала
Частота : 44,1 КГц
Метод сжатия : С потерями
Задержка видео : 20 мс.
Размер потока : 79,9 Мбайт (6%)
Выравнивание : Разделение по промежуткам
Продолжительность промежутка : 40 мс. (1,00 видеокадр)
Время предзагрузки промежутка : 500 мс.
Библиотека кодирования : LAME3.99´*tD*ܑ;ã*ý

pb.wtf



Скачать ABBA - The Video Hits Collection через торрент http://pic1.kartinco.top/images/12/q6iev.jpg Скачать фильм ABBA - The Video Hits Collection [2017 г., Pop, world, disco, pop-rock, WEBRip, Оригинальный]через торрент бесплантно в хорошем качестве О фильме: Легендарная группа "ABBA" была образована в 1972 году в Швеции. Но встретились участники группы ещё раньше, в 1970 году. Двое ... 9 10 2
Торрент: Зарегистрирован [2019-01-16 13:43] · скачан: 53 раз
Статус: √ проверено
Размер: 1.31 GB
Как cкачать? Как скачать ABBA - The Video Hits Collection через торрент | UTorrent

28-11-2019 20:33  

Отключить всю рекламу на сайте

    Дорогой пользователь! Огромная просьба, поблагодарите релизера, оцените раздачу и оставьте свои комментарий, если Вы скачали ABBA - The Video Hits Collection через торрент бесплатно! Внесите свою лепту в развитие PiratBit!
    Комментировать посты могут только пользователи прошедшие не сложную регистрацию
    Показать сообщения:    

    ABBA - The Video Hits Collection через торрент
    Скачать бесплатно ABBA - The Video Hits Collection
    ABBA - The Video Hits Collection скачать торрент
    ABBA - The Video Hits Collection смотреть онлайн
    Cкачать фильм ABBA - The Video Hits Collection бесплатно
    ABBA - The Video Hits Collection скачать торрент в хорошем качестве
    ABBA - The Video Hits Collection смотреть онлайн бесплатно в хорошем качестве


    Вы не можете начинать темы
    Вы не можете отвечать на сообщения
    Вы не можете редактировать свои сообщения
    Вы не можете удалять свои сообщения
    Вы не можете голосовать в опросах
    Вы не можете прикреплять файлы к сообщениям
    Вы можете скачивать файлы