Доктор Стрэндж

Лицензия

Добыча

Дубляж

Уэнсдэй

1 сезон

Тор

Дубляж

В эфире

Дубляж

Там, где раки поют

MVO

Властелин колец

1 сезон

Deluxe

pack

Рекомендуем

30

Пиратка

ВАЖНО

ВАЖНО

Ghostwire

Пиратка

jed

RePack

nioh2

RePack

RDR2

RePack

NEED FOR SPEED™ PAYBACK

RePack

скачать торрент

Кинопоиск HD

Острые козырьки 6 сезон

6 сезон

FAR CRY 6

RePack

скачать торрент

Лицензия

скачать торрент

MVO

1

1 сезон

скачать торрент

1 сезон

скачать торрент

Лицензия

  

Месть Лиззи Борден / Lizzie (Крэйг Уилльям Макнейлл) [2018, триллер, драма, криминал, детектив, биография, BD Remux 1080р] MVO [HDRezka]

Месть Лиззи Борден через торрент pb.wtf

Размер: 17.25 GB | Добавлен: 3 года 10 мес. назад | Торрент скачан:26 раз
Смотреть онлайн | Скачать   

16-01-2019 13:52 Месть Лиззи Борден Скачать торрент  

Месть Лиззи Борден / Lizzie
Год выпуска: 2018
Страна: США
Жанр: триллер, драма, криминал, детектив, биография
Продолжительность: 01:45:42
Перевод: Профессиональный (многоголосый) | HDRezka
Субтитры: английские

Режиссер: Крэйг Уилльям Макнейлл

rating

В ролях:

Хлоя Севиньи, Кристен Стюарт, Дэнис О Хэр, Ким Диккенс, Фиона Шоу, Джефф Перри, Джейми Шеридан, Тара Окс, Джэй Хьюджули, Дэрин Купер

Описание:

4 августа 1892 года усадьба состоятельной семьи Борден огласилась дикими криками. Служанка обнаружила изуродованные и окровавленные тела главы семейства и его жены. Кто-то нанес супружеской паре десятки зверских ударов топором. Следов ограбления не нашли, и основной подозреваемой стала девушка, чьи отец и мачеха были убиты с поразительной жестокостью. Расследование этого преступления вылилось в одно из самых известных и невероятных дел в истории американской криминалистики, в легенду о насилии и мести, о тайной и запретной страсти.

Качество: BD Remux 1080р
Формат: MKV

Видео: MPEG-4 AVC, 1080p, 1920:1080, 19970 kbps, 23.976 fps
Аудио#1: АС3, 2 ch, 48 kHz, 192 kbps HDRezka
Аудио#2: DTS-HD MA, 6 ch, 48 kHz, 3198 kbps, 24-bit (DTS Core 6 ch, 48 kHz, 1509 kbps) English
скриншот  скриншот  скриншот  скриншот  

General
Unique ID : 284433412892941700607874382033415633464 (0xD5FBE1F91E03C160642F3B347454FA38)
Complete name : Lizzie.2018.1080p.REMUX.mkv
Format : Matroska
Format version : Version 4 / Version 2
File size : 17.2 GiB
Duration : 1 h 45 min
Overall bit rate mode : Variable
Overall bit rate : 23.4 Mb/s
Movie name : Lizzie.2018.1080p.BluRay.REMUX.AVC.DTS-HD.MA.5.1-FGT
Encoded date : UTC 2019-01-16 11:25:10
Writing application : mkvmerge v20.0.0 ('I Am The Sun') 64-bit
Writing library : libebml v1.3.5 + libmatroska v1.4.8

Video
ID : 1
Format : AVC
Format/Info : Advanced Video Codec
Format profile : [email protected]
Format settings : CABAC / 4 Ref Frames
Format settings, CABAC : Yes
Format settings, RefFrames : 4 frames
Codec ID : V_MPEG4/ISO/AVC
Duration : 1 h 45 min
Bit rate mode : Variable
Bit rate : 20.0 Mb/s
Maximum bit rate : 35.0 Mb/s
Width : 1 920 pixels
Height : 1 080 pixels
Display aspect ratio : 16:9
Frame rate mode : Constant
Frame rate : 23.976 (24000/1001) FPS
Standard : NTSC
Color space : YUV
Chroma subsampling : 4:2:0
Bit depth : 8 bits
Scan type : Progressive
Bits/(Pixel*Frame) : 0.402
Stream size : 14.7 GiB (85%)
Language : English
Default : Yes
Forced : No
Color range : Limited
Color primaries : BT.709
Transfer characteristics : BT.709
Matrix coefficients : BT.709

Audio #1
ID : 2
Format : AC-3
Format/Info : Audio Coding 3
Codec ID : A_AC3
Duration : 1 h 45 min
Bit rate mode : Constant
Bit rate : 192 kb/s
Channel(s) : 2 channels
Channel positions : Front: L R
Sampling rate : 48.0 kHz
Frame rate : 31.250 FPS (1536 SPF)
Bit depth : 16 bits
Compression mode : Lossy
Stream size : 145 MiB (1%)
Title : HDRezka
Language : Russian
Service kind : Complete Main
Default : Yes
Forced : No

Audio #2
ID : 3
Format : DTS
Format/Info : Digital Theater Systems
Format profile : MA / Core
Codec ID : A_DTS
Duration : 1 h 45 min
Bit rate mode : Variable / Constant
Bit rate : 3 198 kb/s / 1 509 kb/s
Channel(s) : 6 channels
Channel positions : Front: L C R, Side: L R, LFE
Sampling rate : 48.0 kHz
Frame rate : 93.750 FPS (512 SPF)
Bit depth : 24 bits
Compression mode : Lossless / Lossy
Stream size : 2.36 GiB (14%)
Language : English
Default : No
Forced : No

Text
ID : 4
Format : UTF-8
Codec ID : S_TEXT/UTF8
Codec ID/Info : UTF-8 Plain Text
Duration : 1 h 34 min
Bit rate : 28 b/s
Count of elements : 642
Stream size : 19.8 KiB (0%)
Language : English
Default : No
Forced : No

Menu
00:00:00.000 : en:Chapter 00
00:00:12.012 : en:Chapter 01
00:06:25.468 : en:Chapter 02
00:12:39.258 : en:Chapter 03
00:19:10.023 : en:Chapter 04
00:27:34.653 : en:Chapter 05
00:36:35.359 : en:Chapter 06
00:41:07.673 : en:Chapter 07
00:46:37.711 : en:Chapter 08
00:53:02.929 : en:Chapter 09
01:00:24.787 : en:Chapter 10
01:06:01.540 : en:Chapter 11
01:12:29.803 : en:Chapter 12
01:19:11.496 : en:Chapter 13
01:27:13.937 : en:Chapter 14
01:33:06.372 : en:Chapter 15
01:39:43.852 : en:Chapter 16




Скачать Месть Лиззи Борден через торрент https://i2-imageban-ru.translate.goog/out/2019/01/16/1650965d9e4385099289cd5c4fb2ce92.jpg Скачать, смотреть онлайн Месть Лиззи Борден бесплантно в хорошем качестве Описание: 4 августа 1892 года усадьба состоятельной семьи Борден огласилась дикими криками. Служанка обнаружила изуродованные и ... 10 10 4
Торрент: Зарегистрирован [2019-01-16 13:52] · скачан: 26 раз
Статус: T временная
Размер: 17.25 GB
Как cкачать? Как скачать Месть Лиззи Борден через торрент | UTorrent

% Раздел Тема Автор DL S | L
Фильмы 2018 [DVDrip, WEB-DLRip, HDrip] (DUB, MVO) [ 1.41 GB ] Месть Лиззи Борден / Lizzie | Лицензия | BDRip Twi7ter Скачать
1 | 0
Фильмы [HD 720p, 1080p] (Хороший звук DUB, MVO) [ 3.72 GB ] Месть Лиззи Борден / Lizzie | iTunes | 720p bober100 Скачать
1 | 0
Фильмы 2018 [DVDrip, WEB-DLRip, HDrip] (DUB, MVO) [ 1.42 GB ] Месть Лиззи Борден / Lizzie | iTunes | BDRip bober100 Скачать
2 | 0
Фильмы [HD 720p, 1080p] (Хороший звук DUB, MVO) [ 6.65 GB ] Месть Лиззи Борден / Lizzie | iTunes | 1080p bober100 Скачать
1 | 0

28-11-2019 20:33  


Отключить вcю реклaмy на сайте, в т.ч. и в плеере онлайн просмотра!

    Дорогой пользователь! Огромная просьба, поблагодарите релизера, оцените раздачу и оставьте свои комментарий, если Вы скачали Месть Лиззи Борден через торрент бесплатно!!
    Комментировать посты могут только пользователи прошедшие не сложную регистрацию
    Показать сообщения:    


    Месть Лиззи Борден через торрент
    Скачать бесплатно Месть Лиззи Борден
    Месть Лиззи Борден скачать торрент
    Месть Лиззи Борден смотреть онлайн
    Cкачать фильм Месть Лиззи Борден бесплатно
    Месть Лиззи Борден скачать торрент в хорошем качестве
    Месть Лиззи Борден смотреть онлайн бесплатно в хорошем качестве
    Вы не можете начинать темы
    Вы не можете отвечать на сообщения
    Вы не можете редактировать свои сообщения
    Вы не можете удалять свои сообщения
    Вы не можете голосовать в опросах
    Вы не можете прикреплять файлы к сообщениям
    Вы можете скачивать файлы
    Месть Лиззи Борден / Lizzie [2018, триллер, драма, криминал, детектив, биография, BD Remux 1080р] MVO [HDRezka] смотреть онлайн, скачать торрент picoco.icu