Ссылка на приватное зеркало нашего сайта всего за 1$. Внимание количество ограничено!!!

2 сезон

iTunes

1 сезон

1

2 сезон

2 сезон

iTunes

1 сезон

RePack

30

Ultimate

ВАЖНО

ИГРА 18+

pack

RePack

MK11
pack

Забери бонус

RePack

jed

!!Акция!!

Alien_Rage

RePack

fifa19

RePack

Assassins Creed: Odyssey

RePack

NEED FOR SPEED™ PAYBACK

4 сезон

9 сезон

Бесстыжие 9 сезон

Все сериалы

все сериалы на PB.wtf

RePack

FAR CRY 5
  

Убийственный класс / Академия смерти / Deadly Class / Сезон: 1 / Серии: 1-10 из 10 (Ли Толанд Кригер, Адам Кейн, Пако Кабесас и др.) [2018, боевик, триллер, драма, криминал, WEBRip 1080p] [MVO] (HDRezka Studio) pb.wtf

Убийственный класс через торрент pb.wtf

Размер: 12.7 GB | Добавлен: 4 мес. 17 д. назад | Торрент скачан:17 раз
Скачать  

16-01-2019 14:59 Убийственный класс Скачать торрент  

Убийственный класс - Первый сезонDeadly Class - The First Season
Год выпуска: 2018
Страна: США
Производство: SyFy
Жанр: боевик, триллер, драма, криминал
Продолжительность: 01:00:00
Перевод: Профессиональный (многоголосый закадровый) HDRezka Studio
Субтитры: русские (forced)

Режиссёры: Ли Толанд Кригер, Адам Кейн, Пако Кабесас и др.

В ролях: Бенедикт Вонг, Бенджамин Водсворт, Лана Кондор, Мария Габриэла де Фария, Люк Тенни, Лиам Джеймс, Мишель Дюваль, Генри Роллинс, Тейлор Хиксон, Шивон Уильямс, Шон Депнер, Джек Джиллет, Райан Роббинс, Айзая Лейтинен и др.
Описание: Бездомный подросток Маркус Лопес случайно попадает в элитную частную школу для убийц. Там детей киллеров и знаменитых преступников учат убивать, чтобы они продолжили дело родителей. Но Маркус совершенно не похож на своих одноклассников: всё, что происходит в школе, противоречит его принципам.


rating

Качество: WEBRip 1080p
Формат: MKV
Видео: x264, 1920x800, 23.976 fps, ~3 986 kbps avg
Аудио: 48.0 KHz, AС3, 2 ch, ~192.00 kbps avg
General
Unique ID : 59753272595763937414905096853088376753 (0x2CF40FCB5B640E46CF821C5B7E0017B1)
Complete name : G:\Deadly.Class.2018.S01.1080p\Deadly.Class.S01E01.BDRip.1080p.rus.2.0.HDREZKA.STUDIO.mkv
Format : Matroska
Format version : Version 4
File size : 1.59 GiB
Duration : 53 min 33 s
Overall bit rate mode : Variable
Overall bit rate : 4 263 kb/s
Encoded date : UTC 2020-07-06 21:54:10
Writing application : mkvmerge v47.0.0 ('Black Flag') 64-bit
Writing library : libebml v1.3.10 + libmatroska v1.5.2

Video
ID : 1
Format : AVC
Format/Info : Advanced Video Codec
Format profile : High@L4.1
Format settings : CABAC / 1 Ref Frames
Format settings, CABAC : Yes
Format settings, Reference : 1 frame
Codec ID : V_MPEG4/ISO/AVC
Duration : 53 min 33 s
Bit rate mode : Variable
Bit rate : 3 986 kb/s
Maximum bit rate : 2 000 kb/s
Width : 1 920 pixels
Height : 800 pixels
Display aspect ratio : 2.40:1
Frame rate mode : Constant
Frame rate : 23.976 (24000/1001) FPS
Color space : YUV
Chroma subsampling : 4:2:0
Bit depth : 8 bits
Scan type : Progressive
Bits/(Pixel*Frame) : 0.108
Stream size : 1.49 GiB (94%)
Default : Yes
Forced : No
Duration_Source : General_Duration

Audio
ID : 2
Format : AC-3
Format/Info : Audio Coding 3
Commercial name : Dolby Digital
Codec ID : A_AC3
Duration : 53 min 33 s
Bit rate mode : Constant
Bit rate : 192 kb/s
Channel(s) : 2 channels
Channel layout : L R
Sampling rate : 48.0 kHz
Frame rate : 31.250 FPS (1536 SPF)
Compression mode : Lossy
Stream size : 73.6 MiB (5%)
Language : Russian
Service kind : Complete Main
Default : Yes
Forced : No
Duration_Source : General_Duration

скриншот  скриншот  скриншот  

pb.wtf



Скачать Убийственный класс через торрент https://i112.fastpic.ru/big/2020/0707/0e/1b8f5e964ecb48e21f5e6bae7f7e7d0e.jpeg Скачать фильм Убийственный класс через торрент бесплантно в хорошем качестве Описание: Бездомный подросток Маркус Лопес случайно попадает в элитную частную школу для убийц. Там детей киллеров и знаменитых ... 5.5 10 2
Торрент: Зарегистрирован [2020-07-07 13:33] · скачан: 17 раз
Статус: √ проверено
Размер: 12.7 GB
Как cкачать? Как скачать Убийственный класс через торрент | qTorrent

% Раздел Тема Автор DL S | L
Зарубежные сериалы [ 5.25 GB ] Убийственный класс / Академия смерти / Deadly Class / Сезон: 1 / Серии: 1-10 из 10 [2018 WEB-DLRip] MVO [Good People] bober100 Скачать
1 | 0
Зарубежные сериалы [ 17.61 GB ] Убийственный класс / Академия смерти / Deadly Class / Сезон: 1 / Серии: 1-10 из 10 [2018 WEB-DL 1080p] [MVO] killermax2013 Скачать
1 | 0
Зарубежные сериалы [ 7.5 GB ] Убийственный класс / Академия смерти / Deadly Class / Сезон: 1 / Серии: 1-10 из 10 [2018 WEB-DLRip] MVO [TVShows] bober100 Скачать
1 | 0
Зарубежные сериалы [ 8.11 GB ] Убийственный класс / Академия смерти / Deadly Class / Сезон: 1 / Серии: 1-10 из 10 [2019 WEB-DLRip] MVO [LostFilm] bober100 Скачать
1 | 0

28-11-2019 20:33  

Отключить всю рекламу на сайте

    Дорогой пользователь! Огромная просьба, поблагодарите релизера, оцените раздачу и оставьте свои комментарий, если Вы скачали Убийственный класс через торрент бесплатно! Внесите свою лепту в развитие PiratBit!
    Комментировать посты могут только пользователи прошедшие не сложную регистрацию
    Показать сообщения:    

    Убийственный класс через торрент
    Скачать бесплатно Убийственный класс
    Убийственный класс скачать торрент
    Убийственный класс смотреть онлайн
    Cкачать фильм Убийственный класс бесплатно
    Убийственный класс скачать торрент в хорошем качестве
    Убийственный класс смотреть онлайн бесплатно в хорошем качестве


    Вы не можете начинать темы
    Вы не можете отвечать на сообщения
    Вы не можете редактировать свои сообщения
    Вы не можете удалять свои сообщения
    Вы не можете голосовать в опросах
    Вы не можете прикреплять файлы к сообщениям
    Вы можете скачивать файлы