Ссылка на приватное зеркало всего за 1$. Внимание количество ограничено!!!

OK

1+1

iTunes

мы

OK

1

WEB-DLRip

Джокер

Пифагор

Ведьмак / The Witcher сериал

iTunes

ПШазам

ОК

Оно 2

iTunes

30
pack

Вам бонус

ВАЖНО

!!Акция!!

Alien_RageХит недели

RePack

Resident Evil 21

ИГРА 18+

pack

RePack

jed

RePack

fifa19

RePack

Assassins Creed: Odyssey

RePack

NEED FOR SPEED™ PAYBACK

4 сезон

9 сезон

Бесстыжие 9 сезон

Все сериалы

все сериалы на PB.wtf

RePack

FAR CRY 5
  

Когда сомкнётся мгла / After Darkness (Себастьян Сильва) [2018, Фантастика, триллер, драма, семейный, WEB-DL 720p] MVO ["Синема УС"] pb.wtf

Когда сомкнётся мгла через торрент pb.wtf

Размер: 3.79 GB | Добавлен: 1 год назад | Торрент скачан:52 раза
Скачать  

16-01-2019 15:31 Когда сомкнётся мгла Скачать торрент  

Когда сомкнётся мгла / After DarknessГод выпуска: 2018
Страна: США
Жанр: Фантастика, триллер, драма, семейный
Продолжительность: 01:36:22
Перевод: Любительский (многоголосый) | "Синема УС"
Субтитры: отсутствуют

Режиссер: Себастьян Сильва

rating

В ролях:

Наталия Дайер, Кира Седжвик, Тим Дейли, Вэлори Керри, Джон Патрик Амедори, Сэм Дэйли, Роберто Агуайр, Кристина Мэндрелл

Описание:

Когда солнце потухает, одна большая американская семья собирается под родной крышей, чтобы вместе встретить неизбежный конец. Но по мере остывания окружающего мира, начинают всплывать их давние обиды, а апокалипсис угрожает наступить раньше срока.

Качество: WEB-DL 720p
Формат: MKV

Видео: H.264,5 245 kb/s, 1280x688
Аудио#1: Русский, (AC3, 2 ch, 384 Кбит/с)
скриншот  скриншот  скриншот  

Общее
Уникальный идентификатор : 254351826360335442306725928236713950053 (0xBF5A613FCBB39A52AB2139477E8ABB65)
Полное имя : D:\After.Darkness.2019.P.WEB-DL.72Op_KOSHARA.mkv
Формат : Matroska
Версия формата : Version 2
Размер файла : 3,79 Гбайт
Продолжительность : 1 ч. 36 м.
Режим общего битрейта : Переменный
Общий поток : 5631 Кбит/сек
Дата кодирования : UTC 2019-01-16 09:41:18
Программа кодирования : mkvmerge v8.3.0 ('Over the Horizon') 64bit
Библиотека кодирования : libebml v1.3.1 + libmatroska v1.4.2

Видео
Идентификатор : 1
Формат : AVC
Формат/Информация : Advanced Video Codec
Профиль формата : High@L4.1
Параметр CABAC формата : Да
Параметр RefFrames формата : 4 кадра
Идентификатор кодека : V_MPEG4/ISO/AVC
Продолжительность : 1 ч. 36 м.
Вид битрейта : Переменный
Битрейт : 5245 Кбит/сек
Максимальный битрейт : 6000 Кбит/сек
Ширина : 1280 пикселей
Высота : 688 пикселей
Соотношение сторон : 1,85:1
Режим частоты кадров : Постоянный
Частота кадров : 23,976 (24000/1001) кадра/сек
Стандарт вещания : Component
Цветовое пространство : YUV
Субдискретизация насыщенности : 4:2:0
Битовая глубина : 8 бит
Тип развёртки : Прогрессивная
Бит/(Пиксели*Кадры) : 0.243
Размер потока : 3,46 Гбайт (91%)
Default : Да
Forced : Нет
Цветовой диапазон : Limited
Основные цвета : BT.709
Характеристики трансфера : BT.709
Коэффициенты матрицы : BT.709

Аудио
Идентификатор : 2
Формат : AC-3
Формат/Информация : Audio Coding 3
Расширение режима : CM (complete main)
Параметр Endianness формата : Big
Идентификатор кодека : A_AC3
Продолжительность : 1 ч. 36 м.
Вид битрейта : Постоянный
Битрейт : 384 Кбит/сек
Каналы : 2 канала
Расположение каналов : Front: L R
Частота : 48,0 КГц
Частота кадров : 31,250 кадров/сек (1536 spf)
Метод сжатия : С потерями
Размер потока : 265 Мбайт (7%)
Default : Да
Forced : Нет

pb.wtf



Скачать Когда сомкнётся мгла через торрент https://b.radikal.ru/b21/1901/6a/2e0eab775217.jpg Скачать фильм Когда сомкнётся мгла через торрент бесплантно в хорошем качестве Описание: Когда солнце потухает, одна большая американская семья собирается под родной крышей, чтобы вместе встретить неизбежный конец. Но ... 10 10 4
Торрент: Зарегистрирован [2019-01-16 15:31] · скачан: 52 раз
Статус: T временная
Размер: 3.79 GB
Как cкачать? Как скачать Когда сомкнётся мгла через торрент | qTorrent

% Раздел Тема Автор DL S | L
T Фильмы (мультфильмы) cо спонсором показа (Новинки AVI/MKV) [ 1.37 GB ] Когда сомкнётся мгла / After Darkness [2018 WEB-DLRip] MVO ["Синема УС"] bober100 Скачать
1 | 0

28-11-2019 20:33  

Отключить всю рекламу на сайте

16-01-2019 16:54 Когда сомкнётся мгла Скачать торрент  

Опять эта бесячая морда из очень странных дел.pb.wtf



    Дорогой пользователь! Огромная просьба, поблагодарите релизера, оцените раздачу и оставьте свои комментарий, если Вы скачали Когда сомкнётся мгла через торрент бесплатно! Внесите свою лепту в развитие PiratBit!
    Комментировать посты могут только пользователи прошедшие не сложную регистрацию
    Показать сообщения:    

    Когда сомкнётся мгла через торрент
    Скачать бесплатно Когда сомкнётся мгла
    Когда сомкнётся мгла скачать торрент
    Когда сомкнётся мгла смотреть онлайн
    Cкачать фильм Когда сомкнётся мгла бесплатно
    Когда сомкнётся мгла скачать торрент в хорошем качестве
    Когда сомкнётся мгла смотреть онлайн бесплатно в хорошем качестве


    Вы не можете начинать темы
    Вы не можете отвечать на сообщения
    Вы не можете редактировать свои сообщения
    Вы не можете удалять свои сообщения
    Вы не можете голосовать в опросах
    Вы не можете прикреплять файлы к сообщениям
    Вы можете скачивать файлы