Ссылка на приватное зеркало нашего сайта всего за 1$. Внимание количество ограничено!!!

2 сезон

iTunes

1 сезон

1

2 сезон

2 сезон

iTunes

1 сезон

RePack

30

Ultimate

ВАЖНО

ИГРА 18+

pack

RePack

MK11
pack

Забери бонус

RePack

jed

!!Акция!!

Alien_Rage

RePack

fifa19

RePack

Assassins Creed: Odyssey

RePack

NEED FOR SPEED™ PAYBACK

4 сезон

9 сезон

Бесстыжие 9 сезон

Все сериалы

все сериалы на PB.wtf

RePack

FAR CRY 5
  

Them - Manor Of The Se7en Gables - 2018/ FLAC/ image +.cue/ lossless/ Power Metal pb.wtf

Them - Manor Of The Se7en Gables - 2018 через торрент pb.wtf

Размер: 454 MB | Добавлен: 1 год 10 мес. назад | Торрент скачан:5 раз
Скачать  

16-01-2019 16:13 Them - Manor Of The Se7en Gables - 2018 Скачать торрент  


Them - Manor Of The Se7en Gables


Год издания: 2018
Страна: USA | EU
Жанр: Power Metal
Продолжительность: 00:55:00
Лейбл издания: Steamhammer / SPV GmbH
Страна-выпуска диска: Germany
Номер по каталогу: SPV 286602 CD
Формат: FLAC
Битрейт аудио: Lossless
Тип рипа: image +.cue
Наличие сканов в содержимом раздачи: да


01. Residuum (3:24)
02. Circuitous (4:24)
03. Refuge in the Manor (4:36)
04. Witchfinder (5:18)
05. A Scullery Maid (1:55)
06. Ravna (5:50)
07. As the Sage Burns (5:37)
08. The Secret Stairs (4:49)
09. Peine Forte Et Dure (1:45)
10. Maleficium (4:51)
11. Seven Gables to Ash (3:58)
12. Punishment by Fire (8:33)

Код:

Exact Audio Copy V1.3 from 2. September 2016

EAC extraction logfile from 18. December 2018, 10:46

Them / Manor of the Se7en Gables

Used drive  : ATAPI   iHAS122   W   Adapter: 2  ID: 0

Read mode               : Secure
Utilize accurate stream : Yes
Defeat audio cache      : Yes
Make use of C2 pointers : No

Read offset correction                      : 48
Overread into Lead-In and Lead-Out          : No
Fill up missing offset samples with silence : Yes
Delete leading and trailing silent blocks   : No
Null samples used in CRC calculations       : Yes
Used interface                              : Installed external ASPI interface

Used output format              : User Defined Encoder
Selected bitrate                : 1024 kBit/s
Quality                         : High
Add ID3 tag                     : No
Command line compressor         : C:\Program Files\FLAC\flac.exe
Additional command line options : -V -8 -T "Date=%year%" -T "Genre=%genre%" -T"COMMENT=Ripped by  Ilijan [MeTaLMaDNeSS.TeaM]" -8 -V %source%

TOC of the extracted CD

     Track |   Start  |  Length  | Start sector | End sector
    ---------------------------------------------------------
        1  |  0:00.00 |  3:23.58 |         0    |    15282
        2  |  3:23.58 |  4:24.01 |     15283    |    35083
        3  |  7:47.59 |  4:36.01 |     35084    |    55784
        4  | 12:23.60 |  5:18.20 |     55785    |    79654
        5  | 17:42.05 |  1:54.42 |     79655    |    88246
        6  | 19:36.47 |  5:50.13 |     88247    |   114509
        7  | 25:26.60 |  5:36.53 |    114510    |   139762
        8  | 31:03.38 |  4:48.74 |    139763    |   161436
        9  | 35:52.37 |  1:45.32 |    161437    |   169343
       10  | 37:37.69 |  4:51.25 |    169344    |   191193
       11  | 42:29.19 |  3:58.05 |    191194    |   209048
       12  | 46:27.24 |  8:32.51 |    209049    |   247499

Range status and errors

Selected range

     Filename D:\Vknish+g.y.m.=3.14дарасы (Upload On Rutracker, DIE!!!)\Them - Manor of the Se7en Gables.wav

     Peak level 99.0 %
     Extraction speed 3.5 X
     Range quality 100.0 %
     Test CRC 64646CE1
     Copy CRC 64646CE1
     Copy OK

No errors occurred

AccurateRip summary

Track  1  not present in database
Track  2  not present in database
Track  3  not present in database
Track  4  not present in database
Track  5  not present in database
Track  6  not present in database
Track  7  not present in database
Track  8  not present in database
Track  9  not present in database
Track 10  not present in database
Track 11  not present in database
Track 12  not present in database

None of the tracks are present in the AccurateRip database

End of status report

Код:

REM GENRE "Heavy/Power Metal"
REM DATE 2018
REM DISCID B10CE40C
REM COMMENT "ExactAudioCopy v1.3"
PERFORMER "Them"
TITLE "Manor of the Se7en Gables"
FILE "Them - Manor of the Se7en Gables.flac" WAVE
  TRACK 01 AUDIO
    TITLE "Residuum"
    PERFORMER "Them"
    INDEX 01 00:00:00
  TRACK 02 AUDIO
    TITLE "Circuitous"
    PERFORMER "Them"
    INDEX 01 03:23:58
  TRACK 03 AUDIO
    TITLE "Refuge in the Manor"
    PERFORMER "Them"
    INDEX 01 07:47:59
  TRACK 04 AUDIO
    TITLE "Witchfinder"
    PERFORMER "Them"
    INDEX 01 12:23:60
  TRACK 05 AUDIO
    TITLE "A Scullery Maid"
    PERFORMER "Them"
    INDEX 01 17:42:05
  TRACK 06 AUDIO
    TITLE "Ravna"
    PERFORMER "Them"
    INDEX 01 19:36:47
  TRACK 07 AUDIO
    TITLE "As the Sage Burns"
    PERFORMER "Them"
    INDEX 01 25:26:60
  TRACK 08 AUDIO
    TITLE "The Secret Stairs"
    PERFORMER "Them"
    INDEX 01 31:03:38
  TRACK 09 AUDIO
    TITLE "Peine Forte Et Dure"
    PERFORMER "Them"
    INDEX 01 35:52:37
  TRACK 10 AUDIO
    TITLE "Maleficium"
    PERFORMER "Them"
    INDEX 01 37:37:69
  TRACK 11 AUDIO
    TITLE "Seven Gables to Ash"
    PERFORMER "Them"
    INDEX 01 42:29:19
  TRACK 12 AUDIO
    TITLE "Punishment by Fire"
    PERFORMER "Them"
    INDEX 01 46:27:24








pb.wtf



Скачать Them - Manor Of The Se7en Gables - 2018 через торрент http://b.radikal.ru/b25/1901/da/ec69c4ff5986.png Скачать фильм Them - Manor Of The Se7en Gables - 2018через торрент бесплантно в хорошем качестве Трэклист Residuum (3:24) Circuitous (4:24) Refuge in the Manor (4:36) Witchfinder (5:18) A Scullery Maid (1:55) ... 5 10 1
Торрент: Зарегистрирован [2019-01-16 16:13] · скачан: 5 раз
Статус: √ проверено
Размер: 454 MB
Как cкачать? Как скачать Them - Manor Of The Se7en Gables - 2018 через торрент | qTorrent

28-11-2019 20:33  

Отключить всю рекламу на сайте

16-01-2019 17:26 Them - Manor Of The Se7en Gables - 2018 Скачать торрент  

Power Metal это крута pb.wtf



    Дорогой пользователь! Огромная просьба, поблагодарите релизера, оцените раздачу и оставьте свои комментарий, если Вы скачали Them - Manor Of The Se7en Gables - 2018 через торрент бесплатно! Внесите свою лепту в развитие PiratBit!
    Комментировать посты могут только пользователи прошедшие не сложную регистрацию
    Показать сообщения:    

    Them - Manor Of The Se7en Gables - 2018 через торрент
    Скачать бесплатно Them - Manor Of The Se7en Gables - 2018
    Them - Manor Of The Se7en Gables - 2018 скачать торрент
    Them - Manor Of The Se7en Gables - 2018 смотреть онлайн
    Cкачать фильм Them - Manor Of The Se7en Gables - 2018 бесплатно
    Them - Manor Of The Se7en Gables - 2018 скачать торрент в хорошем качестве
    Them - Manor Of The Se7en Gables - 2018 смотреть онлайн бесплатно в хорошем качестве


    Вы не можете начинать темы
    Вы не можете отвечать на сообщения
    Вы не можете редактировать свои сообщения
    Вы не можете удалять свои сообщения
    Вы не можете голосовать в опросах
    Вы не можете прикреплять файлы к сообщениям
    Вы можете скачивать файлы