Всегда рабочее зеркало без VPN и Proxy просто перед .vidak.icu напиши любое слово или цифру, Пример http://smuv.vidak.icu

MVO

Лицензия

1 сезон

1

1 сезон

iTunes

1 сезон

13

1 сезон

Deluxe

pack

Рекомендуем

Пиратка

30

ВАЖНО

RePack

MK11

RePack

jed

RePack

fifa19

RePack

RDR2

RePack

NEED FOR SPEED™ PAYBACK

Кинопоиск HD

6 сезон

 Острые козырьки 6 сезон

Все сериалы

все сериалы на PB.wtf

RePack

FAR CRY 5

Anonymous, нам критически не хватает 2100 руб. на оплату серверов и переферии за МАЙ, помоги нам пожалуйста, вся надежда только на тебя. В благодарность мы отключим тебе всю рекламу на сайте!

×
  
Magnet ссылка

Лара Крофт: Расхитительница гробниц 2 – Колыбель жизни / Lara Croft Tomb Raider: The Cradle of Life (Ян де Бонт ) [2003, фэнтези, боевик, приключения, UHD BDRemux 2160p] DUB [Dolby Vision] pb.wtf

Лара Крофт: Расхитительница гробниц 2 – Колыбель жизни через торрент pb.wtf

Размер: 51.69 GB | Добавлен: 3 года 5 мес. назад | Торрент скачан:26 раз
Смотреть онлайн Лара Крофт: Расхитительница гробниц 2 – Колыбель жизни | Скачать    Ребята, помогите собрать деньги на оплату серверов!!!

16-01-2019 18:44 Лара Крофт: Расхитительница гробниц 2 – Колыбель жизни Скачать торрент  

Лара Крофт: Расхитительница гробниц 2 – Колыбель жизни / Lara Croft Tomb Raider: The Cradle of Life

Год выпуска: 2003
Страна: США, Германия, Япония, Великобритания, Гонконг
Жанр: фэнтези, боевик, приключения
Продолжительность: 01:57:21
Перевод: Дублированный [Лицензия]
Режиссер: Ян де Бонт
В ролях:

Анджелина Джоли (Lara Croft), Джерард Батлер (Terry Sheridan), Киран Хайндс (Jonathan Reiss), Крис Барри (Hillary), Ноа Тейлор (Bryce), Джимон Хонсу (Kosa), Тиль Швайгер (Sean), Саймон Ям (Chen Lo), Теренс Инь (Xien), Даниэль Кальтаджироне (Nicholas Petraki), Фабиано Мартелл (Jimmy Petraki), Джонатан Койн (Gus Petraki)
Описание:
Во второй серии приключений прекрасной расхитительницы гробниц Лары Крофт география действия становится ещё обширней и экзотичней. Ларе предстоит побывать в Греции, Кении, Танзании, Гонконге и Китае, и, разумеется, не для того, чтобы оценить местные красоты.
Рейтинг:

MPAA: PG-13 - Детям до 13 лет просмотр не желателен
Качество: UHD BDRemux 2160p | Dolby Vision
Формат: MP4
Видео: HEVC, 56159 Кбит/с, 3840x2160, 23.976 кадр/с
Аудио: Русский (AC3, 6 ch, 448 Кбит/с)
Данный вид релизов (контейнер MP4) предназначен для встроенного в ТВ (соответственно, с поддержкой DV) плеер.
Т.Е. Можно использовать как USB flash/HDD, так и DLNA / Plex - подобные сервисы/программы. дополнительный-внешний плеер не обязателен.

Внимание!
На моделях LG 2016 возможны сюрпризы "через раз", 2017-2018 должно идти без сюрпризов )
Общее
Полное имя : Lara.Croft.Tomb.Raider.The.Cradle.of.Life.2003.UHD.BDRemux.2160p.DV.IVA.RUS.ExKinoRay.mp4
Формат : MPEG-4
Профиль формата : Base Media / Version 2
Идентификатор кодека : mp42 (mp42/iso6/isom/msdh/dby1)
Размер файла : 51,7 Гбайт
Продолжительность : 1 ч. 57 м.
Общий поток : 63,1 Мбит/сек
Дата кодирования : UTC 2019-01-16 14:51:54
Дата пометки : UTC 2019-01-16 14:51:54

Видео #1
Идентификатор : 1
Формат : HEVC
Формат/Информация : High Efficiency Video Coding
Коммерческое название : HDR10
Профиль формата : Main 10@L5.1@High
Идентификатор кодека : hev1
Идентификатор кодека/Информация : High Efficiency Video Coding
Продолжительность : 1 ч. 57 м.
Битрейт : 56,2 Мбит/сек
Ширина : 3840 пикселей
Высота : 2160 пикселей
Соотношение сторон : 16:9
Режим частоты кадров : Постоянный
Частота кадров : 23,976 (24000/1001) кадра/сек
Цветовое пространство : YUV
Субдискретизация насыщенности : 4:2:0 (Type 2)
Битовая глубина : 10 бит
Бит/(Пиксели*Кадры) : 0.282
Размер потока : 46,0 Гбайт (89%)
Default : Нет
Дата кодирования : UTC 2019-01-16 14:51:54
Дата пометки : UTC 2019-01-16 14:51:54
Цветовой диапазон : Limited
Основные цвета : BT.2020
Характеристики трансфера : PQ
Коэффициенты матрицы : BT.2020 non-constant
MasteringDisplay_ColorPrimaries : Display P3
MasteringDisplay_Luminance : min: 0.0001 cd/m2, max: 1000 cd/m2
Codec configuration box : hvcC

Видео #2
Идентификатор : 2
Формат : HEVC
Формат/Информация : High Efficiency Video Coding
Коммерческое название : HDR10
Профиль формата : Main 10@L5.1@High
Dolby Vision : 1.0, dvhe.07.06, EL+RPU
Идентификатор кодека : dvhe
Идентификатор кодека/Информация : High Efficiency Video Coding with Dolby Vision
Продолжительность : 1 ч. 57 м.
Битрейт : 6447 Кбит/сек
Ширина : 1920 пикселей
Высота : 1080 пикселей
Соотношение сторон : 16:9
Режим частоты кадров : Постоянный
Частота кадров : 23,976 (24000/1001) кадра/сек
Цветовое пространство : YUV
Субдискретизация насыщенности : 4:2:0 (Type 2)
Битовая глубина : 10 бит
Бит/(Пиксели*Кадры) : 0.130
Размер потока : 5,29 Гбайт (10%)
Default : Нет
Дата кодирования : UTC 2019-01-16 14:51:54
Дата пометки : UTC 2019-01-16 14:51:54
Цветовой диапазон : Limited
Основные цвета : BT.2020
Характеристики трансфера : PQ
Коэффициенты матрицы : BT.2020 non-constant
MasteringDisplay_ColorPrimaries : Display P3
MasteringDisplay_Luminance : min: 0.0001 cd/m2, max: 1000 cd/m2
Codec configuration box : hvcC+dvcC

Аудио
Идентификатор : 3
Формат : AC-3
Формат/Информация : Audio Coding 3
Коммерческое название : Dolby Digital
Идентификатор кодека : ac-3
Продолжительность : 1 ч. 57 м.
Вид битрейта : Постоянный
Битрейт : 448 Кбит/сек
Каналы : 6 каналов
Channel layout : L R C LFE Ls Rs
Частота : 48,0 КГц
Частота кадров : 31,250 кадров/сек (1536 SPF)
Битовая глубина : 16 бит
Метод сжатия : С потерями
Размер потока : 376 Мбайт (1%)
Язык : Russian
ServiceKind/String : Complete Main
Default : Нет
Дата кодирования : UTC 2019-01-16 14:51:54
Дата пометки : UTC 2019-01-16 14:51:54
pb.wtf



Скачать Лара Крофт: Расхитительница гробниц 2 – Колыбель жизни через торрент https://c.radikal.ru/c27/1901/e3/7070b2ecb011.png Скачать, смотреть онлайн Лара Крофт: Расхитительница гробниц 2 – Колыбель жизни бесплантно в хорошем качестве Описание: Во второй серии приключений прекрасной расхитительницы гробниц Лары Крофт география действия становится ещё обширней и ... 10 10 5
Торрент: Зарегистрирован [2019-01-16 18:44] · скачан: 26 раз
Статус: √ проверено
Размер: 51.69 GB
Как cкачать? Как скачать Лара Крофт: Расхитительница гробниц 2 – Колыбель жизни через торрент | UTorrent

% Раздел Тема Автор DL S | L
Ultra HD (UHD: 2K, 4K, 8K) — видео сверхвысокой чёткости [ 50.72 GB ] Лара Крофт: Расхитительница гробниц 2 - Колыбель жизни / Lara Croft Tomb Raider: The Cradle of Life [2003 UHD BD Remux 2160p] DUB+DVO+AVO+MVO+2xMVO bober100 Скачать
1 | 0
Фильмы (DVD фильмы) [ 4.26 GB ] Лара Крофт: Расхитительница гробниц 2 - Колыбель жизни / Lara Croft Tomb Raider: The Cradle of Life [2003 ... DVD5] amv77 Скачать
1 | 0
Фильмы 2001-2005 [ 2.18 GB ] Лара Крофт: Расхитительница гробниц 2 - Колыбель жизни / Lara Croft Tomb Raider: The Cradle of Life [2003 ... BDRip] chaga2009 Скачать
1 | 1


Последний раз редактировалось: sheker187 (2019-01-17 15:27), всего редактировалось 1 раз

28-11-2019 20:33  

Отключить всю рекламу на сайте

16-01-2019 21:27 Лара Крофт: Расхитительница гробниц 2 – Колыбель жизни Скачать торрент  

БРАТКА В MKV можно на WindowsPlayer смотреть без проблем и с доп функцией HQ А на остальных плеерах мыло мыльное размер не имеет значения для тех у кого норм система и 4к телек зачем MP4 ЗАЛИВАТЬpb.wtf



16-01-2019 21:32 Лара Крофт: Расхитительница гробниц 2 – Колыбель жизни Скачать торрент  

просто чтоб было )) ну я сначала скачал а после только на формат глянул и удалил сразу мыло это и в mkv скачал,чтобы с прикольной функцией HQ на WindowsPlayer смотретьpb.wtf



16-01-2019 21:33 Лара Крофт: Расхитительница гробниц 2 – Колыбель жизни Скачать торрент  

В разы кручеpb.wtf



16-01-2019 21:35 Лара Крофт: Расхитительница гробниц 2 – Колыбель жизни Скачать торрент  

причём мр4 грузит все плееры оч сильно и звук иногда в рассинхрон идётpb.wtf



17-01-2019 05:50 Лара Крофт: Расхитительница гробниц 2 – Колыбель жизни Скачать торрент  

На данный момент, технически, одним файлом с Dolby Vision доступно только в MP4pb.wtf



    Дорогой пользователь! Огромная просьба, поблагодарите релизера, оцените раздачу и оставьте свои комментарий, если Вы скачали Лара Крофт: Расхитительница гробниц 2 – Колыбель жизни через торрент бесплатно!
    Комментировать посты могут только пользователи прошедшие не сложную регистрацию
    Показать сообщения:    

    Лара Крофт: Расхитительница гробниц 2 – Колыбель жизни через торрент
    Скачать бесплатно Лара Крофт: Расхитительница гробниц 2 – Колыбель жизни
    Лара Крофт: Расхитительница гробниц 2 – Колыбель жизни скачать торрент
    Лара Крофт: Расхитительница гробниц 2 – Колыбель жизни смотреть онлайн
    Cкачать фильм Лара Крофт: Расхитительница гробниц 2 – Колыбель жизни бесплатно
    Лара Крофт: Расхитительница гробниц 2 – Колыбель жизни скачать торрент в хорошем качестве
    Лара Крофт: Расхитительница гробниц 2 – Колыбель жизни смотреть онлайн бесплатно в хорошем качестве


    Вы не можете начинать темы
    Вы не можете отвечать на сообщения
    Вы не можете редактировать свои сообщения
    Вы не можете удалять свои сообщения
    Вы не можете голосовать в опросах
    Вы не можете прикреплять файлы к сообщениям
    Вы можете скачивать файлы