Ссылка на приватное зеркало нашего сайта всего за 1$. Внимание количество ограничено!!!

2 сезон

iTunes

1 сезон

1

iTunes

iTunes

iTunes

1 сезон

RePack

30

ИГРА 18+

pack

ВАЖНО

!!Акция!!

Alien_RageХит недели

RePack

MK11
pack

Забери бонус

RePack

jed

!!Акция!!

Alien_Rage

RePack

fifa19

RePack

Assassins Creed: Odyssey

RePack

NEED FOR SPEED™ PAYBACK

4 сезон

9 сезон

Бесстыжие 9 сезон

Все сериалы

все сериалы на PB.wtf

RePack

FAR CRY 5
  

Беглые родственники / Сезон: 1 / Серии: 1-20 из 20 (Константин Смирнов (VI) [2016, комедия, SATRip] pb.wtf

Беглые родственники через торрент pb.wtf

Размер: 6.51 GB | Добавлен: 1 год 9 мес. назад | Торрент скачан:34 раза
Скачать  

16-01-2019 18:50 Беглые родственники Скачать торрент  

Беглые родственники Год выпуска: 2016
Страна: Россия
Жанр: комедия
Продолжительность: ~ 00:24:00
Перевод: Не требуется
Субтитры: отсутствуют

Режиссер: Константин Смирнов (VI)



В ролях:

Сергей Жигунов, Жанна Эппле, Анастасия Чистякова, Дмитрий Ендальцев, Анатолий Журавлев, Агриппина Стеклова, Анна Андрусенко, Артем Крестников, Евгений Антропов, Константин Шелягин

Описание:

Что делать, если твой папа — олигарх, который поднялся на темных делишках в 90-е, а теперь заманивает доверчивых вкладчиков в свою строительную «пирамиду»? Отключить совесть и пользоваться безлимитной кредиткой? Или порвать с отцом и добиваться всего своими силами? Дима Кондратьев выбрал второй вариант! Да, у него нет дорогой машины и особняка, но есть работа мечты, скромная квартира и главное — любимая девушка Юля, воспитанная в очень простой семье. Дима и Юля хотят всегда быть вместе и уверены, что впереди — долгая и счастливая жизнь. Вот только для начала хорошо бы познакомиться с родителями друг друга. Но мирного семейного ужина не получается. На пороге Диминой квартиры неожиданно возникает вся его семейка: отец — бизнесмен, чьи счета арестованы, а сам он объявленный в розыск, мать, совсем отвыкшая от быта, так как уже несколько лет живет на вилле в Испании, и сестра, избалованная светская львица. Теперь герою придется жить под одной крышей с родственниками в маленькой двухкомнатной квартире да еще и содержать их на свою скромную зарплату.

Качество: SATRip
Формат: AVI

Видео: XviD, 1800 kb/s, 720x400
Аудио: MP3, 128 kb/s (2 ch)
скриншот  скриншот  скриншот  

Общее
Полное имя : D:\Beglye.rodstvenniki.SATRip\Beglye.rodstvenniki.01.SATRip.avi
Формат : AVI
Формат/Информация : Audio Video Interleave
Размер файла : 349 Мбайт
Продолжительность : 25 м. 8 с.
Общий поток : 1938 Кбит/сек
Программа кодирования : VirtualDubMod 1.5.10.3 | www.virtualdub-fr.org || (build 2550/release)
Библиотека кодирования : VirtualDubMod build 2550/release

Видео
Идентификатор : 0
Формат : MPEG-4 Visual
Профиль формата : Advanced Simple@L5
Параметр BVOP формата : 2
Параметр QPel формата : Нет
Параметр GMC формата : Без точки перехода
Параметр матрицы формата : Default (MPEG)
Идентификатор кодека : XVID
Идентификатор кодека/Подсказка : XviD
Продолжительность : 25 м. 8 с.
Битрейт : 1800 Кбит/сек
Ширина : 720 пикселей
Высота : 400 пикселей
Соотношение сторон : 16:9
Частота кадров : 25,000 кадров/сек
Цветовое пространство : YUV
Субдискретизация насыщенности : 4:2:0
Битовая глубина : 8 бит
Тип развёртки : Прогрессивная
Метод сжатия : С потерями
Бит/(Пиксели*Кадры) : 0.250
Размер потока : 324 Мбайт (93%)
Библиотека кодирования : XviD 1.2.1 (UTC 2008-12-04)

Аудио
Идентификатор : 1
Формат : MPEG Audio
Версия формата : Version 1
Профиль формата : Layer 3
Режим : Joint stereo
Расширение режима : MS Stereo
Идентификатор кодека : 55
Идентификатор кодека/Подсказка : MP3
Продолжительность : 25 м. 8 с.
Вид битрейта : Постоянный
Битрейт : 128 Кбит/сек
Каналы : 2 канала
Частота : 48,0 КГц
Метод сжатия : С потерями
Размер потока : 23,0 Мбайт (7%)
Выравнивание : Соединение по промежуткам
Продолжительность промежутка : 40 мс. (1,00 видеокадр)
Время предзагрузки промежутка : 504 мс.

pb.wtf



Скачать Беглые родственники через торрент https://c.radikal.ru/c39/1901/a2/823995b84b43.jpg Скачать фильм Беглые родственники через торрент бесплантно в хорошем качестве Описание: Что делать, если твой папа — олигарх, который поднялся на темных делишках в 90-е, а теперь заманивает доверчивых вкладчиков в ... 10 10 3
Торрент: Зарегистрирован [2019-01-16 18:50] · скачан: 34 раз
Статус: √ проверено
Размер: 6.51 GB
Как cкачать? Как скачать Беглые родственники через торрент | qTorrent

28-11-2019 20:33  

Отключить всю рекламу на сайте

    Дорогой пользователь! Огромная просьба, поблагодарите релизера, оцените раздачу и оставьте свои комментарий, если Вы скачали Беглые родственники через торрент бесплатно! Внесите свою лепту в развитие PiratBit!
    Комментировать посты могут только пользователи прошедшие не сложную регистрацию
    Показать сообщения:    

    Беглые родственники через торрент
    Скачать бесплатно Беглые родственники
    Беглые родственники скачать торрент
    Беглые родственники смотреть онлайн
    Cкачать фильм Беглые родственники бесплатно
    Беглые родственники скачать торрент в хорошем качестве
    Беглые родственники смотреть онлайн бесплатно в хорошем качестве


    Вы не можете начинать темы
    Вы не можете отвечать на сообщения
    Вы не можете редактировать свои сообщения
    Вы не можете удалять свои сообщения
    Вы не можете голосовать в опросах
    Вы не можете прикреплять файлы к сообщениям
    Вы можете скачивать файлы