Ссылка на приватное зеркало всего за 1$. Внимание количество ограничено!!!

OK

1+1

iTunes

мы

OK

1

WEB-DLRip

Джокер

Пифагор

Ведьмак / The Witcher сериал

iTunes

ПШазам

ОК

Оно 2

iTunes

30
pack

Вам бонус

ВАЖНО

!!Акция!!

Alien_RageХит недели

RePack

Resident Evil 21

ИГРА 18+

pack

RePack

jed

RePack

fifa19

RePack

Assassins Creed: Odyssey

RePack

NEED FOR SPEED™ PAYBACK

4 сезон

9 сезон

Бесстыжие 9 сезон

Все сериалы

все сериалы на PB.wtf

RePack

FAR CRY 5
  

Твари-4 / Things 4 (Дэннис Дивайн, Тера Мин) [2017 г., ужасы, фантастика, WEB-DLRip] MVO (КОЛОБОК) pb.wtf

Твари-4 через торрент pb.wtf

Размер: 1.37 GB | Добавлен: 1 год назад | Торрент скачан:71 раз
Скачать  

16-01-2019 18:59 Твари-4 Скачать торрент  

Твари-4 / Things 4
Год выпуска: 2017

Страна: США

Жанр: Ужасы, фантастика

Продолжительность: 01:22:58

Перевод: Любительский (многоголосый) - [КОЛОБОК]

Режиссер: Дэннис Дивайн, Тера Мин

rating

В ролях: Андреа Мартина, Тера Мин, Келли Эрин Декер, Сэлли Маллинз, Марлен Мак’Коэн, Арт Робертс, Дженна Мак’Коэн, Джереми Бенжамин, Камерон Брекслер, Кара Фаро

Описание: Монстры существуют, и они уже на Земле! Эксперименты безумных учёных могут их остановить, а могут и ускорить их победу…
Качество: WEB-DLRip
Формат: AVI
Видео кодек: XviD
Аудио кодек: AC3
Видео: XviD, 1966 Кбит/с, 720x400
Аудио: Русский, AC3, 2 ch, 384 Кбит/с

Видео
Идентификатор : 0
Формат : MPEG-4 Visual
Профиль формата : Advanced Simple@L5
Настройки формата : BVOP2 / Custom Matrix
Параметр BVOP формата : 2
Параметр QPel формата : Нет
Параметр GMC формата : Без точки перехода
Параметр матрицы формата : Выборочная
Идентификатор кодека : XVID
Идентификатор кодека/Подсказка : XviD
Продолжительность : 1 ч. 22 м.
Битрейт : 1966 Кбит/сек
Ширина : 720 пикселей
Высота : 400 пикселей
Соотношение сторон : 16:9
Частота кадров : 23,976 (24000/1001) кадра/сек
Цветовое пространство : YUV
Субдискретизация насыщенности : 4:2:0
Битовая глубина : 8 бит
Тип развёртки : Прогрессивная
Метод сжатия : С потерями
Бит/(Пиксели*Кадры) : 0.285
Размер потока : 1,14 Гбайт (83%)
Библиотека кодирования : XviD 1.2.1 (UTC 2008-12-04)

Аудио
Идентификатор : 1
Формат : AC-3
Формат/Информация : Audio Coding 3
Коммерческое название : Dolby Digital
Идентификатор кодека : 2000
Продолжительность : 1 ч. 22 м.
Вид битрейта : Постоянный
Битрейт : 384 Кбит/сек
Каналы : 2 канала
Channel layout : L R
Частота : 48,0 КГц
Частота кадров : 31,250 кадров/сек (1536 SPF)
Битовая глубина : 16 бит
Метод сжатия : С потерями
Размер потока : 228 Мбайт (16%)
Выравнивание : Разделение по промежуткам
Продолжительность промежутка : 42 мс. (1,00 видеокадр)
Время предзагрузки промежутка : 500 мс.
ServiceKind/String : Complete Main

скриншот   скриншот   скриншот   скриншот   скриншот  

Присутствуют вставки голосовой и текстовой рекламыpb.wtf



Скачать Твари-4 через торрент http://pic1.kartinco.top/images/12/s6a4u.jpg Скачать фильм Твари-4 через торрент бесплантно в хорошем качестве Описание: Монстры существуют, и они уже на Земле! Эксперименты безумных учёных могут их остановить, а могут и ускорить их ... 5 10 2
Торрент: Зарегистрирован [2019-01-16 18:59] · скачан: 71 раз
Статус: T временная
Размер: 1.37 GB
Как cкачать? Как скачать Твари-4 через торрент | qTorrent

28-11-2019 20:33  

Отключить всю рекламу на сайте

16-01-2019 19:19 Твари-4 Скачать торрент  

Оу Фильмы горячего жанра подьехали)pb.wtf



16-01-2019 19:38 Твари-4 Скачать торрент  

По скриншотам выглядит как прон))pb.wtf



17-01-2019 07:00 Твари-4 Скачать торрент  

пронуха!? или просто студенты тамошнего ВГИКа поразвлекались под спайсом?А на последнеи скрине,судя по сисяндрам обвисшим-их научный руководитель и куратор pb.wtf



17-01-2019 08:10 Твари-4 Скачать торрент  

стоит ли смотреть? как фильм?pb.wtf



17-01-2019 08:35 Твари-4 Скачать торрент  

Почему-то я не удивлён голым грудям на скрине, автор походу разделом ошибся. pb.wtf



17-01-2019 11:27 Твари-4 Скачать торрент  

Твари это, видимо, шмары на втором скрине. Хотя их трое, а не четверо))))pb.wtf



17-01-2019 13:18 Твари-4 Скачать торрент  

pb.wtf



17-01-2019 14:07 Твари-4 Скачать торрент  

Garter писал(а):

стоит ли смотреть? как фильм?

Думаю бюджет фильма ушел на постер, да и на декорациях сэкономили. Все что ниже рейтинга 5 даже спрашивать не надо стоит ли смотреть. Только на свой страх и риск.pb.wtf



    Дорогой пользователь! Огромная просьба, поблагодарите релизера, оцените раздачу и оставьте свои комментарий, если Вы скачали Твари-4 через торрент бесплатно! Внесите свою лепту в развитие PiratBit!
    Комментировать посты могут только пользователи прошедшие не сложную регистрацию
    Показать сообщения:    

    Твари-4 через торрент
    Скачать бесплатно Твари-4
    Твари-4 скачать торрент
    Твари-4 смотреть онлайн
    Cкачать фильм Твари-4 бесплатно
    Твари-4 скачать торрент в хорошем качестве
    Твари-4 смотреть онлайн бесплатно в хорошем качестве


    Вы не можете начинать темы
    Вы не можете отвечать на сообщения
    Вы не можете редактировать свои сообщения
    Вы не можете удалять свои сообщения
    Вы не можете голосовать в опросах
    Вы не можете прикреплять файлы к сообщениям
    Вы можете скачивать файлы