Ссылка на приватное зеркало всего за 1$. Внимание количество ограничено!!!

OK

1+1

iTunes

мы

OK

1

WEB-DLRip

Джокер

Пифагор

Ведьмак / The Witcher сериал

iTunes

ПШазам

ОК

Оно 2

iTunes

30
pack

Вам бонус

ВАЖНО

!!Акция!!

Alien_RageХит недели

RePack

Resident Evil 21

ИГРА 18+

pack

RePack

jed

RePack

fifa19

RePack

Assassins Creed: Odyssey

RePack

NEED FOR SPEED™ PAYBACK

4 сезон

9 сезон

Бесстыжие 9 сезон

Все сериалы

все сериалы на PB.wtf

RePack

FAR CRY 5
  

Рокэвей / Rockaway (Джон Дж. Будион) [2017, драма, приключения, WEB-DL 720p] MVO ["Синема УС"] pb.wtf

Рокэвей через торрент pb.wtf

Раздают: 1 [ 0 KB/s ]
Размер: 3.46 GB | Добавлен: 1 год назад | Торрент скачан:52 раза
Скачать  

16-01-2019 20:15 Рокэвей Скачать торрент  

Рокэвей / RockawayГод выпуска: 2017
Страна: США
Жанр: драма, приключения
Продолжительность: 01:24:44
Перевод: Любительский (многоголосый) | "Синема УС"
Субтитры: отсутствуют

Режиссер: Джон Дж. Будион

rating

В ролях:

Кейдрич Селлати, Максвелл Эппл, Джеймс ДиДжакомо, Тэннер Флуд, Колин Критчли, Харрисон Уиттмейер, Нолан Лайонс, София Роуз, Уасс М. Стивенс, Марьян Нешат

Описание:

История, вдохновленная реальными событиями, о человеке, вспоминающем лето 94-го года когда он с братом планировал месть их отцу-тирану.

Качество: WEB-DL 720p
Формат: MKV

Видео: h.264,5 457 kb/s, 1280x536
Аудио#1: Русский, (AC3, 2 ch, 384 Кбит/с)
скриншот  скриншот  скриншот  

Общее
Уникальный идентификатор : 196955762611155661678717851227139497332 (0x942C4CD2E9307219A8F098A71C325D74)
Полное имя : D:\Rockaway.2017.P.WEB-DL.72Op_KOSHARA.mkv
Формат : Matroska
Версия формата : Version 2
Размер файла : 3,46 Гбайт
Продолжительность : 1 ч. 24 м.
Режим общего битрейта : Переменный
Общий поток : 5843 Кбит/сек
Дата кодирования : UTC 2019-01-16 18:49:04
Программа кодирования : mkvmerge v8.3.0 ('Over the Horizon') 64bit
Библиотека кодирования : libebml v1.3.1 + libmatroska v1.4.2

Видео
Идентификатор : 1
Формат : AVC
Формат/Информация : Advanced Video Codec
Профиль формата : High@L4.1
Параметр CABAC формата : Да
Параметр RefFrames формата : 4 кадра
Идентификатор кодека : V_MPEG4/ISO/AVC
Продолжительность : 1 ч. 24 м.
Вид битрейта : Переменный
Битрейт : 5457 Кбит/сек
Максимальный битрейт : 6000 Кбит/сек
Ширина : 1280 пикселей
Высота : 536 пикселей
Соотношение сторон : 2,40:1
Режим частоты кадров : Постоянный
Частота кадров : 23,976 (24000/1001) кадра/сек
Стандарт вещания : Component
Цветовое пространство : YUV
Субдискретизация насыщенности : 4:2:0
Битовая глубина : 8 бит
Тип развёртки : Прогрессивная
Бит/(Пиксели*Кадры) : 0.325
Размер потока : 3,16 Гбайт (91%)
Default : Да
Forced : Нет
Цветовой диапазон : Limited
Основные цвета : BT.709
Характеристики трансфера : BT.709
Коэффициенты матрицы : BT.709

Аудио
Идентификатор : 2
Формат : AC-3
Формат/Информация : Audio Coding 3
Расширение режима : CM (complete main)
Параметр Endianness формата : Big
Идентификатор кодека : A_AC3
Продолжительность : 1 ч. 24 м.
Вид битрейта : Постоянный
Битрейт : 384 Кбит/сек
Каналы : 2 канала
Расположение каналов : Front: L R
Частота : 48,0 КГц
Частота кадров : 31,250 кадров/сек (1536 spf)
Метод сжатия : С потерями
Размер потока : 233 Мбайт (7%)
Default : Да
Forced : Нет

pb.wtf



Скачать Рокэвей через торрент https://c.radikal.ru/c10/1901/85/16ac639b0383.jpg Скачать фильм Рокэвей через торрент бесплантно в хорошем качестве Описание: История, вдохновленная реальными событиями, о человеке, вспоминающем лето 94-го года когда он с братом планировал месть их ... 9.7 10 3
Info! Золотая раздача, скачанное не засчитывается.
Торрент: Зарегистрирован [2019-01-16 20:15] · скачан: 52 раз
Статус: T временная
Размер: 3.46 GB
Как cкачать? Как скачать Рокэвей через торрент | qTorrent

% Раздел Тема Автор DL S | L
T Фильмы (мультфильмы) cо спонсором показа (Новинки AVI/MKV) [ 1.37 GB ] Рокэвей / Rockaway [2017 WEB-DLRip] MVO ["Синема УС"] bober100 Скачать
1 | 0

28-11-2019 20:33  

Отключить всю рекламу на сайте

    Дорогой пользователь! Огромная просьба, поблагодарите релизера, оцените раздачу и оставьте свои комментарий, если Вы скачали Рокэвей через торрент бесплатно! Внесите свою лепту в развитие PiratBit!
    Комментировать посты могут только пользователи прошедшие не сложную регистрацию
    Показать сообщения:    

    Рокэвей через торрент
    Скачать бесплатно Рокэвей
    Рокэвей скачать торрент
    Рокэвей смотреть онлайн
    Cкачать фильм Рокэвей бесплатно
    Рокэвей скачать торрент в хорошем качестве
    Рокэвей смотреть онлайн бесплатно в хорошем качестве


    Вы не можете начинать темы
    Вы не можете отвечать на сообщения
    Вы не можете редактировать свои сообщения
    Вы не можете удалять свои сообщения
    Вы не можете голосовать в опросах
    Вы не можете прикреплять файлы к сообщениям
    Вы можете скачивать файлы