Ссылка на приватное зеркало нашего сайта всего за 1$. Внимание количество ограничено!!!

2 сезон

iTunes

1 сезон

1

2 сезон

2 сезон

iTunes

1 сезон

RePack

30

Новинка

ВАЖНО

ИГРА 18+

pack

RePack

MK11
pack

Забери бонус

RePack

jed

!!Акция!!

Alien_Rage

RePack

fifa19

RePack

Assassins Creed: Odyssey

RePack

NEED FOR SPEED™ PAYBACK

4 сезон

9 сезон

Бесстыжие 9 сезон

Все сериалы

все сериалы на PB.wtf

RePack

FAR CRY 5
  

Уэйн / Wayne / Сезон: 1 / Серии 1-10 из 10 (Стив Пинк, Тесса Хофф, Майкл Патрик Джэнн) [2019, Боевик, комедия, WEBRip 720p] [DVO] (KosharaSerials) pb.wtf

Уэйн через торрент pb.wtf

Размер: 5.09 GB | Добавлен: 1 год 10 мес. назад | Торрент скачан:80 раз
Скачать  

16-01-2019 21:51 Уэйн Скачать торрент  

Уэйн / Wayne
Информация о сериале

Год выпуска: 2019
Жанр: Боевик, комедия
Страна: США
Продолжительность: 1 x ~ 00:35:00
Перевод: Любительский (двухголосый закадровый) KosharaSerials

Режиссер: Стив Пинк, Тесса Хофф, Майкл Патрик Джэнн

В ролях: Сиэра Браво, Марк МакКенна, Джеймс Эрл, Стивен Кеарин, Дин Уинтерс, Майк О’Мэлли, Джошуа Дж. Уильямс

О фильме: 16-летний Уэйн вместе с подругой отправляется на мотоцикле из Бостона во Флориду, чтобы вернуть старенький Понтиак своего отца, который был украден до его смерти.

rating
скриншот  

Файл

Качество: WEBRip 720p
Формат: MKV
Видео: MPEG-4 AVC, ~ 2206 Кбит/с, 1280x640
Звук: Русский / AC3 / 2 Ch / 192kbs
скриншот   скриншот   скриншот   скриншот  
General
Unique ID : 175587765082732190196580797250392092160 (0x8418F934F13F8984875DBE46F374EE00)
Complete name : F:\Wayne.S01.720p.KosharaSerials\Wayne.S01E01.720p.KosharaSerials.mkv
Format : Matroska
Format version : Version 4 / Version 2
File size : 625 MiB
Duration : 35 min 43 s
Overall bit rate : 2 446 kb/s
Encoded date : UTC 2019-01-16 19:48:31
Writing application : mkvmerge v8.3.0 ('Over the Horizon') 64bit
Writing library : libebml v1.3.1 + libmatroska v1.4.2

Video
ID : 1
Format : AVC
Format/Info : Advanced Video Codec
Format profile : High@L3.1
Format settings : CABAC / 4 Ref Frames
Format settings, CABAC : Yes
Format settings, RefFrames : 4 frames
Codec ID : V_MPEG4/ISO/AVC
Duration : 35 min 43 s
Bit rate : 2 206 kb/s
Width : 1 280 pixels
Height : 640 pixels
Display aspect ratio : 2.000
Frame rate mode : Constant
Frame rate : 23.976 (24000/1001) FPS
Color space : YUV
Chroma subsampling : 4:2:0
Bit depth : 8 bits
Scan type : Progressive
Bits/(Pixel*Frame) : 0.112
Stream size : 564 MiB (90%)
Writing library : x264 core 146 r2538 121396c
Encoding settings : cabac=1 / ref=1 / deblock=1:0:0 / analyse=0x3:0x113 / me=hex / subme=2 / psy=1 / psy_rd=1.00:0.10 / mixed_ref=0 / me_range=16 / chroma_me=1 / trellis=0 / 8x8dct=1 / cqm=0 / deadzone=21,11 / fast_pskip=1 / chroma_qp_offset=0 / threads=18 / lookahead_threads=5 / sliced_threads=0 / nr=0 / decimate=1 / interlaced=0 / bluray_compat=0 / constrained_intra=0 / bframes=3 / b_pyramid=2 / b_adapt=1 / b_bias=0 / direct=1 / weightb=1 / open_gop=0 / weightp=1 / keyint=250 / keyint_min=23 / scenecut=40 / intra_refresh=0 / rc_lookahead=10 / rc=crf / mbtree=1 / crf=17.0 / qcomp=0.60 / qpmin=0 / qpmax=69 / qpstep=4 / ip_ratio=1.40 / aq=1:1.00
Default : Yes
Forced : No

Audio
ID : 2
Format : AC-3
Format/Info : Audio Coding 3
Format settings, Endianness : Big
Codec ID : A_AC3
Duration : 35 min 43 s
Bit rate mode : Constant
Bit rate : 192 kb/s
Channel(s) : 2 channels
Channel positions : Front: L R
Sampling rate : 48.0 kHz
Frame rate : 31.250 FPS (1536 SPF)
Bit depth : 16 bits
Compression mode : Lossy
Stream size : 49.1 MiB (8%)
Service kind : Complete Main
Default : Yes
Forced : No

Внимание! Раздача ведётся путём добавления новых серий; при каждом добавлении создаётся новый торрент. Чтобы начать докачку новой серии, пользователям необходимо сделать следующее:
(1) остановить скачивание,
(2) удалить старый торрент у себя из клиента (старые серии удалять не надо),
(3) скачать новый торрент и запустить его у себя в клиенте вместо старого, при этом указать клиенту путь в старую папку куда и должно происходить скачивание новых серий.
Ваш клиент при этом должен произвести хеширование (проверку) старой папки (если не производит сам - помогите ему сделать это), и будет докачивать только те серии которых у вас ещё нет. Старые серии при этом не удаляются, а продолжают раздаваться!
Eсли вы уже удалили старые серии, то предотвратить повторную закачку старых серий можно, отжав галочку в соответствующих местах при запуске нового торрента. По возможности, желательно не удалять старые серии как можно дольше чтобы релизёр не столько продолжал раздавать старые серии, а смог сконцентрироваться на новых.
pb.wtf



Скачать Уэйн через торрент https://i106.fastpic.ru/big/2019/0117/70/9684f8b6fe938bf221a6cc0c4ebb0670.jpg Скачать фильм Уэйн через торрент бесплантно в хорошем качестве О фильме: 16-летний Уэйн вместе с подругой отправляется на мотоцикле из Бостона во Флориду, чтобы вернуть старенький Понтиак своего отца, ... 7.8 10 4
Торрент: Зарегистрирован [2019-01-17 11:34] · скачан: 80 раз
Статус: √ проверено
Размер: 5.09 GB
Как cкачать? Как скачать Уэйн через торрент | qTorrent

% Раздел Тема Автор DL S | L
Зарубежные сериалы [ 4.11 GB ] Уэйн / Wayne / Сезон: 1 / Серии: 1-10 из 10 [2019 WEBRip] MVO [NewStudio] bober100 Скачать
1 | 0
Зарубежные сериалы [ 4.91 GB ] Уэйн / Wayne / Сезон: 1 / Серии 1-10 из 10 [2019 WEB-DL 720] [DVO] killermax2013 Скачать
3 | 0
Зарубежные сериалы [ 29.55 GB ] Уэйн / Wayne / Сезон: 1 / Серии 1-10 из 10 [2019 WEB-DL 2160p] [DVO] killermax2013 Скачать
1 | 0
Зарубежные сериалы [ 29.56 GB ] Уэйн / Wayne / Сезон: 1 / Серии: 1-10 из 10 [2019 UHD WEBRip 2160p] MVO [Good People] bober100 Скачать
1 | 0
Зарубежные сериалы [ 4.91 GB ] Уэйн / Wayne / Сезон: 1 / Серии: 1-10 из 10 [2019 WEB-DL 720p] MVO [Jaskier] bober100 Скачать
1 | 0
Зарубежные сериалы [ 3.9 GB ] Уэйн / Wayne / Сезон: 1 / Серии: 1-10 из 10 [2019 WEB-DLRip] MVO bober100 Скачать
1 | 0
Зарубежные сериалы [ 4.11 GB ] Уэйн / Wayne / Сезон: 1 / Серии: 1-10 из 10 [2019 WEB-DLRip] MVO [Good People] bober100 Скачать
1 | 0

28-11-2019 20:33  

Отключить всю рекламу на сайте

    Дорогой пользователь! Огромная просьба, поблагодарите релизера, оцените раздачу и оставьте свои комментарий, если Вы скачали Уэйн через торрент бесплатно! Внесите свою лепту в развитие PiratBit!
    Комментировать посты могут только пользователи прошедшие не сложную регистрацию
    Показать сообщения:    

    Уэйн через торрент
    Скачать бесплатно Уэйн
    Уэйн скачать торрент
    Уэйн смотреть онлайн
    Cкачать фильм Уэйн бесплатно
    Уэйн скачать торрент в хорошем качестве
    Уэйн смотреть онлайн бесплатно в хорошем качестве


    Вы не можете начинать темы
    Вы не можете отвечать на сообщения
    Вы не можете редактировать свои сообщения
    Вы не можете удалять свои сообщения
    Вы не можете голосовать в опросах
    Вы не можете прикреплять файлы к сообщениям
    Вы можете скачивать файлы