Ссылка на приватное зеркало нашего сайта всего за 1$. Внимание количество ограничено!!!

2 сезон

iTunes

1 сезон

1

2 сезон

2 сезон

iTunes

1 сезон

RePack

30

Новинка

ВАЖНО

ИГРА 18+

pack

RePack

MK11
pack

Забери бонус

RePack

jed

!!Акция!!

Alien_Rage

RePack

fifa19

RePack

Assassins Creed: Odyssey

RePack

NEED FOR SPEED™ PAYBACK

4 сезон

9 сезон

Бесстыжие 9 сезон

Все сериалы

все сериалы на PB.wtf

RePack

FAR CRY 5
  

Девушка, которая застряла в паутине / The Girl in the Spider's Web (Федерико Альварес) [2018, триллер, драма, криминал, WEB-DL 720p] DUB (rus, ukr) [iTunes] pb.wtf

Девушка, которая застряла в паутине через торрент pb.wtf

Размер: 3.94 GB | Добавлен: 1 год 10 мес. назад | Торрент скачан:318 раз
Скачать  

16-01-2019 22:33 Девушка, которая застряла в паутине Скачать торрент  

Девушка, которая застряла в паутине / The Girl in the Spider's Web
Год выпуска: 2018
Страна: Великобритания, Германия, Швеция, Канада, США
Жанр: триллер, драма, криминал
Продолжительность: 01:55:24
Перевод: Дублированный | iTunes
Субтитры: Русские (Forced, full), украинские (Full), английские

Режиссер: Федерико Альварес

rating

В ролях:

Клер Фой, Сверрир Гуднасон, Сильвия Хукс, Лакит Стэнфилд, Стивен Мерчант, Камерон Бриттон, Вики Крипс, Фолькер Брух, Микаэл Персбрандт, Клас Банг

Описание:

Хакер Лисбет Саландер и журналист Микаэль Блумквист оказываются втянуты в историю с участием шпионов, киберпреступников и коррумпированных чиновников.

Качество: WEB-DL 720p
Формат: MKV

Видео: MPEG-4 AVC, 1280x530, 3994 Mbit/s, 23.976 fps
Аудио#1: 48 kHz, AC3, 5.1, 384 Kbps | iTunes | RUS |
Аудио#2: 48 kHz, AAC, 2.0, 127 Kbps | iTunes | UKR |
Аудио#3: 48 kHz, AC3, 5.1, 384 Kbps | Оригинал | ENG |
скриншот  
скриншот   скриншот   скриншот   скриншот   скриншот  

General
Unique ID : 315019938857987111417091796400377917489 (0xECFEA22215371AAF22E5AE9310737031)
Complete name : D:Video111The.Girl.in.the.Spiders.Web.2018.WEB-DL.720p.seleZen.mkv
Format : Matroska
Format version : Version 4
File size : 3.94 GiB
Duration : 1 h 55 min
Overall bit rate : 4 892 kb/s
Movie name : The Girl in the Spiders Web 2018 from селезень
Encoded date : UTC 2019-01-16 22:19:12
Writing application : mkvmerge v29.0.0 ('Like It Or Not') 64-bit
Writing library : libebml v1.3.6 + libmatroska v1.4.9

Video
ID : 1
Format : AVC
Format/Info : Advanced Video Codec
Format profile : Main@L3.1
Format settings : 2 Ref Frames
Format settings, CABAC : No
Format settings, ReFrames : 2 frames
Codec ID : V_MPEG4/ISO/AVC
Duration : 1 h 55 min
Bit rate : 3 994 kb/s
Width : 1 280 pixels
Height : 530 pixels
Display aspect ratio : 2.40:1
Frame rate mode : Constant
Frame rate : 23.976 (24000/1001) FPS
Color space : YUV
Chroma subsampling : 4:2:0
Bit depth : 8 bits
Scan type : Progressive
Bits/(Pixel*Frame) : 0.246
Stream size : 3.22 GiB (82%)
Language : English
Default : Yes
Forced : No
Color range : Limited
Color primaries : BT.709
Transfer characteristics : BT.709
Matrix coefficients : BT.709

Audio #1
ID : 2
Format : AC-3
Format/Info : Audio Coding 3
Commercial name : Dolby Digital
Codec ID : A_AC3
Duration : 1 h 55 min
Bit rate mode : Constant
Bit rate : 384 kb/s
Channel(s) : 6 channels
Channel layout : L R C LFE Ls Rs
Sampling rate : 48.0 kHz
Frame rate : 31.250 FPS (1536 SPF)
Bit depth : 16 bits
Compression mode : Lossy
Stream size : 317 MiB (8%)
Title : iTunes
Language : Russian
Service kind : Complete Main
Default : Yes
Forced : Yes

Audio #2
ID : 3
Format : AAC LC
Format/Info : Advanced Audio Codec Low Complexity
Codec ID : A_AAC-2
Duration : 1 h 55 min
Bit rate : 127 kb/s
Channel(s) : 2 channels
Channel layout : L R
Sampling rate : 48.0 kHz
Frame rate : 46.875 FPS (1024 SPF)
Compression mode : Lossy
Stream size : 105 MiB (3%)
Title : iTunes
Language : Ukrainian
Default : No
Forced : No

Audio #3
ID : 4
Format : AC-3
Format/Info : Audio Coding 3
Commercial name : Dolby Digital
Codec ID : A_AC3
Duration : 1 h 55 min
Bit rate mode : Constant
Bit rate : 384 kb/s
Channel(s) : 6 channels
Channel layout : L R C LFE Ls Rs
Sampling rate : 48.0 kHz
Frame rate : 31.250 FPS (1536 SPF)
Bit depth : 16 bits
Compression mode : Lossy
Stream size : 317 MiB (8%)
Title : Original
Language : English
Service kind : Complete Main
Default : No
Forced : No

Text #1
ID : 5
Format : UTF-8
Codec ID : S_TEXT/UTF8
Codec ID/Info : UTF-8 Plain Text
Duration : 1 h 51 min
Bit rate : 0 b/s
Count of elements : 14
Stream size : 732 Bytes (0%)
Title : Forced
Language : Russian
Default : Yes
Forced : Yes

Text #2
ID : 6
Format : UTF-8
Codec ID : S_TEXT/UTF8
Codec ID/Info : UTF-8 Plain Text
Duration : 1 h 53 min
Bit rate : 38 b/s
Count of elements : 731
Stream size : 32.0 KiB (0%)
Title : Full
Language : Russian
Default : No
Forced : No

Text #3
ID : 7
Format : UTF-8
Codec ID : S_TEXT/UTF8
Codec ID/Info : UTF-8 Plain Text
Duration : 1 h 53 min
Bit rate : 37 b/s
Count of elements : 693
Stream size : 31.0 KiB (0%)
Title : Full
Language : Ukrainian
Default : No
Forced : No

Text #4
ID : 8
Format : UTF-8
Codec ID : S_TEXT/UTF8
Codec ID/Info : UTF-8 Plain Text
Duration : 1 h 46 min
Bit rate : 24 b/s
Count of elements : 695
Stream size : 19.3 KiB (0%)
Language : English
Default : No
Forced : No

Menu
00:00:00.000 : en:1
00:10:23.915 : en:2
00:16:32.867 : en:3
00:21:05.431 : en:4
00:27:34.445 : en:5
00:34:20.058 : en:6
00:41:41.040 : en:7
00:48:24.318 : en:8
00:58:39.182 : en:9
01:05:56.827 : en:10
01:10:31.977 : en:11
01:20:03.923 : en:12
01:27:18.899 : en:13
01:35:05.532 : en:14
01:38:04.127 : en:15
01:43:16.564 : en:16

pb.wtf



Скачать Девушка, которая застряла в паутине через торрент https://b.radikal.ru/b07/1901/7b/58196c04b17a.jpg Скачать фильм Девушка, которая застряла в паутине через торрент бесплантно в хорошем качестве Описание: Хакер Лисбет Саландер и журналист Микаэль Блумквист оказываются втянуты в историю с участием шпионов, киберпреступников и ... 8.9 10 14
Торрент: Зарегистрирован [2019-01-16 22:33] · скачан: 318 раз
Статус: √ проверено
Размер: 3.94 GB
Как cкачать? Как скачать Девушка, которая застряла в паутине через торрент | qTorrent

28-11-2019 20:33  

Отключить всю рекламу на сайте

    Дорогой пользователь! Огромная просьба, поблагодарите релизера, оцените раздачу и оставьте свои комментарий, если Вы скачали Девушка, которая застряла в паутине через торрент бесплатно! Внесите свою лепту в развитие PiratBit!
    Комментировать посты могут только пользователи прошедшие не сложную регистрацию
    Показать сообщения:    

    Девушка, которая застряла в паутине через торрент
    Скачать бесплатно Девушка, которая застряла в паутине
    Девушка, которая застряла в паутине скачать торрент
    Девушка, которая застряла в паутине смотреть онлайн
    Cкачать фильм Девушка, которая застряла в паутине бесплатно
    Девушка, которая застряла в паутине скачать торрент в хорошем качестве
    Девушка, которая застряла в паутине смотреть онлайн бесплатно в хорошем качестве


    Вы не можете начинать темы
    Вы не можете отвечать на сообщения
    Вы не можете редактировать свои сообщения
    Вы не можете удалять свои сообщения
    Вы не можете голосовать в опросах
    Вы не можете прикреплять файлы к сообщениям
    Вы можете скачивать файлы