Ссылка на приватное зеркало всего за 1$. Внимание количество ограничено!!!

iTunes

1+1

iTunes

мы

WEB-DL

1

iTunes

Чернобыль

iTunes

Ральф против интернета

Лицензия

ПШазам

Лицензия

Оно 2

Лицензия

30
pack

Вам бонус

ВАЖНО

!!Акция!!

Alien_RageХит недели

RePack

Resident Evil 21

ИГРА 18+

pack

RePack

jed

!!Акция!!

Alien_Rage

RePack

fifa19

RePack

Assassins Creed: Odyssey

RePack

NEED FOR SPEED™ PAYBACK

3 сезон

9 сезон

Бесстыжие 9 сезон

Все сериалы

все сериалы на PB.wtf

RePack

FAR CRY 5
Ребята, катастрофически не хватает 1900р. для оплаты серверов за Октябрь (всвязи с блокировками трафик упал в 3 раза), 1-2р., выручайте.
  

Тайна дома с часами / The House with a Clock in Its Walls (Элай Рот) [2018, ужасы, фантастика, фэнтези, триллер, комедия, детектив, BDRip-AVC] DUB [Лицензия] pb.wtf

Тайна дома с часами через торрент pb.wtf

Раздают: 1 [ 0 KB/s ]
Размер: 2 GB | Добавлен: 10 мес. назад | Торрент скачан:396 раз
Скачать  

17-01-2019 01:29 Тайна дома с часами Скачать торрент  

Тайна дома с часами / The House with a Clock in Its Walls Год выпуска: 2018
Страна: США Канада Индия
Жанр: ужасы, фантастика, фэнтези, триллер, комедия, детектив
Продолжительность: 01:45:04
Перевод: Дублированный | Лицензия
Субтитры: Русские (форс., полные), Английские (полные, SDH)

Режиссер: Элай Рот

rating

В ролях:

Джек Блэк, Кейт Бланшетт, Оуэн Ваккаро, Кайл МакЛоклен, Рене Голдсберри, Коллин Кэмп, Санни Сулджик, Лоренца Иззо, Брэкстон Бьеркен, Ванесса Энн Уильямс

Описание:

Первое, что услышал Льюис, ступив на порог загадочного особняка своего дяди, - это тиканье часов, раздававшееся из древних стен. Он окунается в мир магии и колдовства, о существовании которого даже не подозревал. Здесь оживают картины, обитают невероятные создания, а сердце дома хранит тайну времени.

Качество: BDRip-AVC
Формат: MKV

Видео: 1024x428 (2.40:1), 23,976 fps, x264 ~1 827 kbps avg, 0.174 bit/pixel
Аудио#1: 48 kHz, AC3 Dolby Digital, 3/2 (L,C,R,l,r) + LFE ch, ~448.00 kbps avg | RUS (Лицензия)
Аудио#2: 48 kHz, AC3 Dolby Digital, 3/2 (L,C,R,l,r) + LFE ch, ~448.00 kbps avg | ENG
скриншот  скриншот  скриншот  скриншот  

Общее
Уникальный идентификатор : 10052851277782887553771498626667831658 (0x7901BD5BEA4EF97002702B85CA0E16A)
Полное имя : F:OlLanDGroupThe.House.with.a.Clock.in.Its.Walls.2018.BDRip(AVC).OlLanDGroup.mkv
Формат : Matroska
Версия формата : Version 4 / Version 2
Размер файла : 2,00 Гбайт
Продолжительность : 1 ч. 45 м.
Общий поток : 2726 Кбит/сек
Название фильма : The.House.with.a.Clock.in.Its.Walls.2018 #TorpedoUK#
Дата кодирования : UTC 2019-01-17 00:43:20
Программа кодирования : mkvmerge v29.0.0 ('Like It Or Not') 64-bit
Библиотека кодирования : libebml v1.3.6 + libmatroska v1.4.9

Видео
Идентификатор : 1
Формат : AVC
Формат/Информация : Advanced Video Codec
Профиль формата : High@L4.1
Параметр CABAC формата : Да
Параметр ReFrames формата : 10 кадров
Идентификатор кодека : V_MPEG4/ISO/AVC
Продолжительность : 1 ч. 45 м.
Битрейт : 1827 Кбит/сек
Ширина : 1024 пикселя
Высота : 428 пикселей
Соотношение сторон : 2,40:1
Режим частоты кадров : Постоянный
Частота кадров : 23,976 (24000/1001) кадра/сек
Цветовое пространство : YUV
Субдискретизация насыщенности : 4:2:0
Битовая глубина : 8 бит
Тип развёртки : Прогрессивная
Бит/(Пиксели*Кадры) : 0.174
Размер потока : 1,34 Гбайт (67%)
Библиотека кодирования : x264 core 146 r2538 121396c
Настройки программы : cabac=1 / ref=10 / deblock=1:-3:-3 / analyse=0x3:0x113 / me=umh / subme=11 / psy=1 / psy_rd=0.98:0.05 / mixed_ref=1 / me_range=48 / chroma_me=1 / trellis=2 / 8x8dct=1 / cqm=0 / deadzone=21,11 / fast_pskip=1 / chroma_qp_offset=-3 / threads=6 / lookahead_threads=1 / sliced_threads=0 / nr=0 / decimate=1 / interlaced=0 / bluray_compat=0 / constrained_intra=0 / bframes=11 / b_pyramid=2 / b_adapt=2 / b_bias=0 / direct=3 / weightb=1 / open_gop=0 / weightp=2 / keyint=240 / keyint_min=23 / scenecut=40 / intra_refresh=0 / rc_lookahead=40 / rc=2pass / mbtree=0 / bitrate=1827 / ratetol=1.0 / qcomp=0.60 / qpmin=0 / qpmax=69 / qpstep=4 / cplxblur=20.0 / qblur=0.5 / vbv_maxrate=50000 / vbv_bufsize=62500 / nal_hrd=none / filler=0 / ip_ratio=1.40 / pb_ratio=1.30 / aq=1:1.00
Язык : English
Default : Да
Forced : Нет

Аудио #1
Идентификатор : 2
Формат : AC-3
Формат/Информация : Audio Coding 3
Расширение режима : CM (complete main)
Параметр Endianness формата : Big
Идентификатор кодека : A_AC3
Продолжительность : 1 ч. 45 м.
Вид битрейта : Постоянный
Битрейт : 448 Кбит/сек
Каналы : 6 каналов
Расположение каналов : Front: L C R, Side: L R, LFE
Частота : 48,0 КГц
Частота кадров : 31,250 кадров/сек (1536 spf)
Битовая глубина : 16 бит
Метод сжатия : С потерями
Размер потока : 337 Мбайт (16%)
Заголовок : Dub [License]
Язык : Russian
Default : Да
Forced : Нет

Аудио #2
Идентификатор : 3
Формат : AC-3
Формат/Информация : Audio Coding 3
Расширение режима : CM (complete main)
Параметр Endianness формата : Big
Идентификатор кодека : A_AC3
Продолжительность : 1 ч. 45 м.
Вид битрейта : Постоянный
Битрейт : 448 Кбит/сек
Каналы : 6 каналов
Расположение каналов : Front: L C R, Side: L R, LFE
Частота : 48,0 КГц
Частота кадров : 31,250 кадров/сек (1536 spf)
Битовая глубина : 16 бит
Метод сжатия : С потерями
Размер потока : 337 Мбайт (16%)
Заголовок : [Original]
Язык : English
Default : Нет
Forced : Нет

Текст #1
Идентификатор : 4
Формат : UTF-8
Идентификатор кодека : S_TEXT/UTF8
Идентификатор кодека/Информация : UTF-8 Plain Text
Продолжительность : 1 ч. 44 м.
Битрейт : 1 бит/сек
Count of elements : 22
Размер потока : 848 байт (0%)
Заголовок : Forced [License]
Язык : Russian
Default : Да
Forced : Нет

Текст #2
Идентификатор : 5
Формат : UTF-8
Идентификатор кодека : S_TEXT/UTF8
Идентификатор кодека/Информация : UTF-8 Plain Text
Продолжительность : 1 ч. 44 м.
Битрейт : 66 бит/сек
Count of elements : 1254
Размер потока : 50,6 Кбайт (0%)
Заголовок : Full [License]
Язык : Russian
Default : Нет
Forced : Нет

Текст #3
Идентификатор : 6
Формат : UTF-8
Идентификатор кодека : S_TEXT/UTF8
Идентификатор кодека/Информация : UTF-8 Plain Text
Продолжительность : 1 ч. 38 м.
Битрейт : 89 бит/сек
Count of elements : 1522
Размер потока : 64,3 Кбайт (0%)
Заголовок : Full [Focs]
Язык : Russian
Default : Нет
Forced : Нет

Текст #4
Идентификатор : 7
Формат : UTF-8
Идентификатор кодека : S_TEXT/UTF8
Идентификатор кодека/Информация : UTF-8 Plain Text
Продолжительность : 1 ч. 37 м.
Битрейт : 54 бит/сек
Count of elements : 1288
Размер потока : 39,2 Кбайт (0%)
Заголовок : Full
Язык : English
Default : Нет
Forced : Нет

Текст #5
Идентификатор : 8
Формат : UTF-8
Идентификатор кодека : S_TEXT/UTF8
Идентификатор кодека/Информация : UTF-8 Plain Text
Продолжительность : 1 ч. 39 м.
Битрейт : 65 бит/сек
Count of elements : 1629
Размер потока : 47,6 Кбайт (0%)
Заголовок : SDH
Язык : English
Default : Нет
Forced : Нет

Меню
00:00:00.000 : :Глава 01
00:05:32.707 : :Глава 02
00:11:59.635 : :Глава 03
00:16:41.792 : :Глава 04
00:22:41.985 : :Глава 05
00:27:43.536 : :Глава 06
00:31:11.494 : :Глава 07
00:34:58.346 : :Глава 08
00:39:05.843 : :Глава 09
00:44:35.422 : :Глава 10
00:49:56.034 : :Глава 11
00:53:44.221 : :Глава 12
00:58:07.734 : :Глава 13
01:05:02.064 : :Глава 14
01:11:44.842 : :Глава 15
01:15:59.638 : :Глава 16
01:21:33.805 : :Глава 17
01:26:39.986 : :Глава 18
01:33:34.650 : :Глава 19
01:39:03.938 : :Глава 20

pb.wtf



Скачать Тайна дома с часами через торрент https://i107.fastpic.ru/big/2018/1216/4e/3ab4199ec305939016d9e2116cae234e.jpg Скачать фильм Тайна дома с часами через торрент бесплантно в хорошем качестве Описание: Первое, что услышал Льюис, ступив на порог загадочного особняка своего дяди, - это тиканье часов, раздававшееся из древних стен. ... 10 10 13
Торрент: Зарегистрирован [2019-01-17 01:29] · скачан: 396 раз
Статус: √ проверено
Размер: 2 GB
Как cкачать? Как скачать Тайна дома с часами через торрент | qTorrent

% Раздел Тема Автор DL S | L
Ultra HD (UHD: 2K, 4K, 8K) — видео сверхвысокой чёткости [ 45.16 GB ] Тайна дома с часами / The House with a Clock in Its Walls [2018 UHD BDRemux 2160p] DUB [] + MVO [HDRezka Studio] sheker187 Скачать
1 | 0
Ultra HD (UHD: 2K, 4K, 8K) — видео сверхвысокой чёткости [ 12.86 GB ] Тайна дома с часами / The House with a Clock in Its Walls [2018 UHD BDRip 2160p] DUB [] sheker187 Скачать
3 | 0
Фильмы [HD 720p, 1080p] (Хороший звук DUB, MVO) [ 13.09 GB ] Тайна дома с часами / The House with a Clock in Its Walls [2018 BDRip 1080p] DUB [] bober100 Скачать
7 | 0
Фильмы 2018 [DVDrip, WEB-DLRip, HDrip] (DUB, MVO) [ 1.46 GB ] Тайна дома с часами / The House with a Clock in Its Walls [2018 BDRip] - [] Twi7ter Скачать
33 | 0
Фильмы (Blu-ray, BD-Remux, HDDVD) [ 24.63 GB ] Тайна дома с часами / The House with a Clock in Its Walls [2018 BD Remux 1080p] MVO [HDRezka Studio] +DUB [] bober100 Скачать
2 | 0
Фильмы 2018 [DVDrip, WEB-DLRip, HDrip] (DUB, MVO) [ 745 MB ] Тайна дома с часами / The House with a Clock in Its Walls [2018 BDRip] DUB [] bober100 Скачать
4 | 0
Ultra HD (UHD: 2K, 4K, 8K) — видео сверхвысокой чёткости [ 22.49 GB ] Тайна дома с часами / The House with a Clock in Its Walls [2018 UHD BDRip 2160p] [SDR] DUB [] sheker187 Скачать
2 | 0

28-11-2019 20:33  

Отключить всю рекламу на сайте

    Дорогой пользователь! Огромная просьба, поблагодарите релизера, оцените раздачу и оставьте свои комментарий, если Вы скачали Тайна дома с часами через торрент бесплатно! Внесите свою лепту в развитие PiratBit!
    Комментировать посты могут только пользователи прошедшие не сложную регистрацию
    Показать сообщения:    

    Тайна дома с часами через торрент
    Скачать бесплатно Тайна дома с часами
    Тайна дома с часами скачать торрент
    Тайна дома с часами смотреть онлайн
    Cкачать фильм Тайна дома с часами бесплатно
    Тайна дома с часами скачать торрент в хорошем качестве
    Тайна дома с часами смотреть онлайн бесплатно в хорошем качестве


    Вы не можете начинать темы
    Вы не можете отвечать на сообщения
    Вы не можете редактировать свои сообщения
    Вы не можете удалять свои сообщения
    Вы не можете голосовать в опросах
    Вы не можете прикреплять файлы к сообщениям
    Вы можете скачивать файлы