Ссылка на приватное зеркало нашего сайта всего за 1$. Внимание количество ограничено!!!

2 сезон

iTunes

1 сезон

1

2 сезон

2 сезон

iTunes

1 сезон

RePack

30

Ultimate

ВАЖНО

ИГРА 18+

pack

RePack

MK11
pack

Забери бонус

RePack

jed

!!Акция!!

Alien_Rage

RePack

fifa19

RePack

Assassins Creed: Odyssey

RePack

NEED FOR SPEED™ PAYBACK

4 сезон

9 сезон

Бесстыжие 9 сезон

Все сериалы

все сериалы на PB.wtf

RePack

FAR CRY 5
  

Уэйн / Wayne / Сезон: 1 / Серии 1-10 из 10 (Стив Пинк, Тесса Хофф, Майкл Патрик Джэнн) [2019, Боевик, комедия, WEBRip] DVO (KosharaSerials) pb.wtf

Уэйн через торрент pb.wtf

Размер: 3.98 GB | Добавлен: 1 год 10 мес. назад | Торрент скачан:44 раза
Скачать  

17-01-2019 02:02 Уэйн Скачать торрент  

Уэйн / Wayne Информация о сериале

Год выпуска: 2019
Жанр: Боевик, комедия
Страна: США
Продолжительность: ~ 00:35:00
Перевод: Любительский (двухголосый закадровый) | KosharaSerials
Субтитры: отсутствуют

Режиссер: Стив Пинк, Тесса Хофф, Майкл Патрик Джэнн

rating
скриншот  

В ролях:

Сиэра Браво, Марк МакКенна, Джеймс Эрл, Стивен Кеарин, Дин Уинтерс, Майк О’Мэлли, Джошуа Дж. Уильямс

Описание:

16-летний Уэйн вместе с подругой отправляется на мотоцикле из Бостона во Флориду, чтобы вернуть старенький Понтиак своего отца, который был украден до его смерти.

Качество: WEBRip
Формат: AVI

Видео: XviD, 1500 Кбит/с, 720x360
Аудио#1: AC3, 2 ch, 192 Кбит/с
скриншот  скриншот  

Общее
Полное имя : D:\Wayne.S01.400p.KosharaSerials\Wayne.S01E01.400p.KosharaSerials.avi
Формат : AVI
Формат/Информация : Audio Video Interleave
Размер файла : 435 Мбайт
Продолжительность : 35 м. 43 с.
Общий поток : 1701 Кбит/сек
Программа кодирования : VirtualDubMod 1.5.10.3 | www.virtualdub-fr.org || (build 2550/release)
Библиотека кодирования : VirtualDubMod build 2550/release

Видео
Идентификатор : 0
Формат : MPEG-4 Visual
Профиль формата : Advanced Simple@L5
Параметр BVOP формата : 1
Параметр QPel формата : Нет
Параметр GMC формата : Без точки перехода
Параметр матрицы формата : Default (H.263)
Идентификатор кодека : XVID
Идентификатор кодека/Подсказка : XviD
Продолжительность : 35 м. 43 с.
Битрейт : 1500 Кбит/сек
Ширина : 720 пикселей
Высота : 360 пикселей
Соотношение сторон : 2,000
Частота кадров : 23,976 (23976/1000) кадра/сек
Цветовое пространство : YUV
Субдискретизация насыщенности : 4:2:0
Битовая глубина : 8 бит
Тип развёртки : Прогрессивная
Метод сжатия : С потерями
Бит/(Пиксели*Кадры) : 0.241
Размер потока : 383 Мбайт (88%)
Библиотека кодирования : XviD 1.2.1 (UTC 2008-12-04)

Аудио
Идентификатор : 1
Формат : AC-3
Формат/Информация : Audio Coding 3
Расширение режима : CM (complete main)
Параметр Endianness формата : Big
Идентификатор кодека : 2000
Продолжительность : 35 м. 43 с.
Вид битрейта : Постоянный
Битрейт : 192 Кбит/сек
Каналы : 2 канала
Расположение каналов : Front: L R
Частота : 48,0 КГц
Частота кадров : 31,250 кадров/сек (1536 spf)
Метод сжатия : С потерями
Размер потока : 49,1 Мбайт (11%)
Выравнивание : Разделение по промежуткам
Продолжительность промежутка : 42 мс. (1,00 видеокадр)
Время предзагрузки промежутка : 500 мс.

pb.wtf



Скачать Уэйн через торрент https://i106.fastpic.ru/big/2019/0117/70/9684f8b6fe938bf221a6cc0c4ebb0670.jpg Скачать фильм Уэйн через торрент бесплантно в хорошем качестве Описание: 16-летний Уэйн вместе с подругой отправляется на мотоцикле из Бостона во Флориду, чтобы вернуть старенький Понтиак своего отца, ... 10 10 2
Торрент: Зарегистрирован [2019-01-17 02:02] · скачан: 44 раз
Статус: √ проверено
Размер: 3.98 GB
Как cкачать? Как скачать Уэйн через торрент | qTorrent

% Раздел Тема Автор DL S | L
Зарубежные сериалы [ 4.11 GB ] Уэйн / Wayne / Сезон: 1 / Серии: 1-10 из 10 [2019 WEBRip] MVO [NewStudio] bober100 Скачать
1 | 0
Зарубежные сериалы [ 4.91 GB ] Уэйн / Wayne / Сезон: 1 / Серии 1-10 из 10 [2019 WEB-DL 720] [DVO] killermax2013 Скачать
5 | 0
Зарубежные сериалы [ 29.55 GB ] Уэйн / Wayne / Сезон: 1 / Серии 1-10 из 10 [2019 WEB-DL 2160p] [DVO] killermax2013 Скачать
1 | 0
Зарубежные сериалы [ 29.56 GB ] Уэйн / Wayne / Сезон: 1 / Серии: 1-10 из 10 [2019 UHD WEBRip 2160p] MVO [Good People] bober100 Скачать
1 | 0
Зарубежные сериалы [ 4.91 GB ] Уэйн / Wayne / Сезон: 1 / Серии: 1-10 из 10 [2019 WEB-DL 720p] MVO [Jaskier] bober100 Скачать
1 | 0
Зарубежные сериалы [ 3.9 GB ] Уэйн / Wayne / Сезон: 1 / Серии: 1-10 из 10 [2019 WEB-DLRip] MVO bober100 Скачать
1 | 0
Зарубежные сериалы [ 4.11 GB ] Уэйн / Wayne / Сезон: 1 / Серии: 1-10 из 10 [2019 WEB-DLRip] MVO [Good People] bober100 Скачать
1 | 0

28-11-2019 20:33  

Отключить всю рекламу на сайте

    Дорогой пользователь! Огромная просьба, поблагодарите релизера, оцените раздачу и оставьте свои комментарий, если Вы скачали Уэйн через торрент бесплатно! Внесите свою лепту в развитие PiratBit!
    Комментировать посты могут только пользователи прошедшие не сложную регистрацию
    Показать сообщения:    

    Уэйн через торрент
    Скачать бесплатно Уэйн
    Уэйн скачать торрент
    Уэйн смотреть онлайн
    Cкачать фильм Уэйн бесплатно
    Уэйн скачать торрент в хорошем качестве
    Уэйн смотреть онлайн бесплатно в хорошем качестве


    Вы не можете начинать темы
    Вы не можете отвечать на сообщения
    Вы не можете редактировать свои сообщения
    Вы не можете удалять свои сообщения
    Вы не можете голосовать в опросах
    Вы не можете прикреплять файлы к сообщениям
    Вы можете скачивать файлы