Всегда рабочее зеркало без VPN и Proxy просто перед .vidak.icu напиши любое слово или цифру, Пример http://sscr.vidak.icu

MVO

MVO

1 сезон

1

1 сезон

iTunes

1 сезон

13

1 сезон

Deluxe

pack

Рекомендуем

Repack

30

ВАЖНО

RePack

MK11

RePack

jed

RePack

fifa19

RePack

RDR2

RePack

NEED FOR SPEED™ PAYBACK

Кинопоиск HD

6 сезон

 Острые козырьки 6 сезон

Все сериалы

все сериалы на PB.wtf

RePack

FAR CRY 5
  
Magnet ссылка

Тайна дома с часами / The House with a Clock in Its Walls (Элай Рот) [2018 г., Фэнтези, комедия, детектив, семейный, UHD BDRip 2160p] DUB [Лицензия] pb.wtf

Тайна дома с часами через торрент pb.wtf

Размер: 12.86 GB | Добавлен: 3 года 6 мес. назад | Торрент скачан:396 раз
Смотреть онлайн Тайна дома с часами | Скачать    Ребята, помогите собрать деньги на оплату серверов!!!

17-01-2019 03:48 Тайна дома с часами Скачать торрент  


Тайна дома с часами / The House with a Clock in Its Walls«Откройте дверь в бесконечность»

Год выпуска: 2018
Страна: США
Жанр: Фэнтези, ужасы, триллер, комедия, детектив, семейный, экранизация
Продолжительность: 01:45:04
Перевод: Дублированный | Лицензия
Субтитры: Русские (Forced, full), английские
Режиссер: Элай Рот
В ролях:

Джек Блэк (Jonathan Barnavelt), Кейт Бланшетт (Florence Zimmerman), Оуэн Ваккаро (Lewis Barnavelt), Кайл МакЛоклен (Isaac Izard), Рене Голдсберри (Selena Izard), Коллин Кэмп (Mrs. Hanchett), Санни Сулджик (Tarby Corrigan), Лоренца Иззо (Mother), Брэкстон Бьеркен (Woody Mingo), Ванесса Энн Уильямс (Rose Rita Pottinger), Рики Мьюз (Bus Driver), Чарльз Грин (Soda Jerk)
Описание:
Первое, что услышал Льюис, ступив на порог загадочного особняка своего дяди, — это тиканье часов, раздававшееся из древних стен. Он окунается в мир магии и колдовства, о существовании которого даже не подозревал. Здесь оживают картины, обитают невероятные создания, а сердце дома хранит тайну времени.

MPAA: PG - Рекомендуется присутствие родителей
Качество: UHD BDRip 2160p
Формат: MKV
Видео: HEVC HDR, 15900 Кбит/c, 3840x1608, 23.976 Кадр/с, 10 bit
Аудио: DTS, 6 ch, 768 Kbps | Русский_ Дублированное лицензия
Аудио: AC-3, 6 ch, 448 Kbps | Русский_ Дублированное лицензия
Аудио: AC-3, 6 ch, 448 Kbps | Английский
Навигация по главам: Есть

Общее
Уникальный идентификатор : 228000044071038311923287025423956610199 (0xAB873612803EC6CDA42917E56C5C8C97)
Полное имя : D:\Передел_2\Новая папка\The.House.with.a.Clock.in.Its.Walls.2018.2160p.UHD.BDRip.x265.10bit.Master5.mkv
Формат : Matroska
Версия формата : Version 4
Размер файла : 12,9 Гбайт
Продолжительность : 1 ч. 45 м.
Общий поток : 17,5 Мбит/сек
Название фильма : The.House.with.a.Clock.in.Its.Walls.2018.2160p.UHD.BDRip.x265.10bit.Master5
Дата кодирования : UTC 2019-01-17 00:32:58
Программа кодирования : mkvmerge v7.9.0 ('Birds') 64bit
Библиотека кодирования : libebml v1.3.1 + libmatroska v1.4.2

Видео
Идентификатор : 1
Формат : HEVC
Формат/Информация : High Efficiency Video Coding
Коммерческое название : HDR10
Профиль формата : Main [email protected]@High
Идентификатор кодека : V_MPEGH/ISO/HEVC
Продолжительность : 1 ч. 45 м.
Битрейт : 15,9 Мбит/сек
Ширина : 3840 пикселей
Высота : 1608 пикселей
Соотношение сторон : 2,40:1
Режим частоты кадров : Постоянный
Частота кадров : 23,976 (24000/1001) кадра/сек
Цветовое пространство : YUV
Субдискретизация насыщенности : 4:2:0 (Type 2)
Битовая глубина : 10 бит
Бит/(Пиксели*Кадры) : 0.107
Размер потока : 11,6 Гбайт (90%)
Заголовок : The.House.with.a.Clock.in.Its.Walls.2018.2160p.UHD.BDRip.x265.10bit.Master5
Библиотека кодирования : x265 2.8+74-fd517ae68f93:[Windows][GCC 6.3.0][64 bit] 10bit
Настройки программы : cpuid=1111039 / frame-threads=4 / numa-pools=20 / wpp / no-pmode / no-pme / no-psnr / no-ssim / log-level=2 / input-csp=1 / input-res=3840x1608 / interlace=0 / total-frames=151115 / level-idc=51 / high-tier=1 / uhd-bd=0 / ref=4 / no-allow-non-conformance / repeat-headers / annexb / aud / hrd / info / hash=0 / no-temporal-layers / no-open-gop / min-keyint=1 / keyint=24 / gop-lookahead=0 / bframes=4 / b-adapt=2 / b-pyramid / bframe-bias=0 / rc-lookahead=25 / lookahead-slices=4 / scenecut=40 / radl=0 / no-intra-refresh / ctu=64 / min-cu-size=8 / rect / no-amp / max-tu-size=32 / tu-inter-depth=1 / tu-intra-depth=1 / limit-tu=0 / rdoq-level=2 / dynamic-rd=0.00 / no-ssim-rd / signhide / no-tskip / nr-intra=0 / nr-inter=0 / no-constrained-intra / no-strong-intra-smoothing / max-merge=3 / limit-refs=3 / limit-modes / me=3 / subme=3 / merange=57 / temporal-mvp / weightp / no-weightb / no-analyze-src-pics / deblock=-3:-3 / no-sao / no-sao-non-deblock / rd=4 / no-early-skip / rskip / no-fast-intra / no-tskip-fast / no-cu-lossless / no-b-intra / no-splitrd-skip / rdpenalty=0 / psy-rd=2.00 / psy-rdoq=1.00 / no-rd-refine / no-lossless / cbqpoffs=0 / crqpoffs=0 / rc=crf / crf=17.0 / qcomp=0.60 / qpstep=4 / stats-write=0 / stats-read=0 / vbv-maxrate=160000 / vbv-bufsize=160000 / vbv-init=0.9 / crf-max=0.0 / crf-min=0.0 / ipratio=1.40 / pbratio=1.30 / aq-mode=1 / aq-strength=1.00 / cutree / zone-count=0 / no-strict-cbr / qg-size=32 / no-rc-grain / qpmax=69 / qpmin=0 / no-const-vbv / sar=1 / overscan=0 / videoformat=5 / range=0 / colorprim=9 / transfer=16 / colormatrix=9 / chromaloc=1 / chromaloc-top=2 / chromaloc-bottom=2 / display-window=0 / master-display=G(13250,34500)B(7500,3000)R(34000,16000)WP(15635,16450)L(10000000,50) / max-cll=1000,155 / min-luma=0 / max-luma=1023 / log2-max-poc-lsb=8 / vui-timing-info / vui-hrd-info / slices=1 / no-opt-qp-pps / no-opt-ref-list-length-pps / no-multi-pass-opt-rps / scenecut-bias=0.05 / no-opt-cu-delta-qp / no-aq-motion / hdr / hdr-opt / no-dhdr10-opt / no-idr-recovery-sei / analysis-reuse-level=5 / scale-factor=0 / refine-intra=0 / refine-inter=0 / refine-mv=0 / no-limit-sao / ctu-info=0 / no-lowpass-dct / refine-mv-type=0 / copy-pic=1 / max-ausize-factor=1.0 / no-dynamic-refine / no-single-sei
Default : Да
Forced : Нет
Цветовой диапазон : Limited
Основные цвета : BT.2020
Характеристики трансфера : PQ
Коэффициенты матрицы : BT.2020 non-constant
MasteringDisplay_ColorPrimaries : Display P3
MasteringDisplay_Luminance : min: 0.0050 cd/m2, max: 1000 cd/m2
MaxCLL : 1000 cd/m2
MaxFALL : 155 cd/m2

Аудио #1
Идентификатор : 2
Формат : DTS
Формат/Информация : Digital Theater Systems
Идентификатор кодека : A_DTS
Продолжительность : 1 ч. 45 м.
Вид битрейта : Постоянный
Битрейт : 768 Кбит/сек
Каналы : 6 каналов
Channel layout : C L R Ls Rs LFE
Частота : 48,0 КГц
Частота кадров : 93,750 кадра/сек (512 SPF)
Битовая глубина : 24 бит
Метод сжатия : С потерями
Размер потока : 577 Мбайт (4%)
Заголовок : Dub License
Язык : Russian
Default : Да
Forced : Да

Аудио #2
Идентификатор : 3
Формат : AC-3
Формат/Информация : Audio Coding 3
Коммерческое название : Dolby Digital
Идентификатор кодека : A_AC3
Продолжительность : 1 ч. 45 м.
Вид битрейта : Постоянный
Битрейт : 448 Кбит/сек
Каналы : 6 каналов
Channel layout : L R C LFE Ls Rs
Частота : 48,0 КГц
Частота кадров : 31,250 кадров/сек (1536 SPF)
Битовая глубина : 16 бит
Метод сжатия : С потерями
Размер потока : 337 Мбайт (3%)
Заголовок : Dub License
Язык : Russian
ServiceKind/String : Complete Main
Default : Нет
Forced : Нет

Аудио #3
Идентификатор : 4
Формат : AC-3
Формат/Информация : Audio Coding 3
Коммерческое название : Dolby Digital
Идентификатор кодека : A_AC3
Продолжительность : 1 ч. 45 м.
Вид битрейта : Постоянный
Битрейт : 448 Кбит/сек
Каналы : 6 каналов
Channel layout : L R C LFE Ls Rs
Частота : 48,0 КГц
Частота кадров : 31,250 кадров/сек (1536 SPF)
Битовая глубина : 16 бит
Метод сжатия : С потерями
Размер потока : 337 Мбайт (3%)
Заголовок : Original
Язык : English
ServiceKind/String : Complete Main
Default : Нет
Forced : Нет

Текст #1
Идентификатор : 5
Формат : UTF-8
Идентификатор кодека : S_TEXT/UTF8
Идентификатор кодека/Информация : UTF-8 Plain Text
Продолжительность : 1 ч. 44 м.
Битрейт : 1 бит/сек
ElementCount : 22
Размер потока : 848 байт (0%)
Заголовок : Forced License
Язык : Russian
Default : Да
Forced : Да

Текст #2
Идентификатор : 6
Формат : UTF-8
Идентификатор кодека : S_TEXT/UTF8
Идентификатор кодека/Информация : UTF-8 Plain Text
Продолжительность : 1 ч. 44 м.
Битрейт : 66 бит/сек
ElementCount : 1254
Размер потока : 50,6 Кбайт (0%)
Заголовок : Full License
Язык : Russian
Default : Нет
Forced : Нет

Текст #3
Идентификатор : 7
Формат : UTF-8
Идентификатор кодека : S_TEXT/UTF8
Идентификатор кодека/Информация : UTF-8 Plain Text
Продолжительность : 1 ч. 38 м.
Битрейт : 88 бит/сек
ElementCount : 1522
Размер потока : 64,3 Кбайт (0%)
Заголовок : Full v.2
Язык : Russian
Default : Нет
Forced : Нет

Текст #4
Идентификатор : 8
Формат : UTF-8
Идентификатор кодека : S_TEXT/UTF8
Идентификатор кодека/Информация : UTF-8 Plain Text
Продолжительность : 1 ч. 37 м.
Битрейт : 55 бит/сек
ElementCount : 1288
Размер потока : 39,8 Кбайт (0%)
Заголовок : Full
Язык : English
Default : Нет
Forced : Нет

Текст #5
Идентификатор : 9
Формат : UTF-8
Идентификатор кодека : S_TEXT/UTF8
Идентификатор кодека/Информация : UTF-8 Plain Text
Продолжительность : 1 ч. 39 м.
Битрейт : 65 бит/сек
ElementCount : 1629
Размер потока : 47,6 Кбайт (0%)
Заголовок : SDH
Язык : English
Default : Нет
Forced : Нет

Меню
00:00:00.000 : :Глава 01
00:05:32.707 : :Глава 02
00:11:59.635 : :Глава 03
00:16:41.792 : :Глава 04
00:22:41.985 : :Глава 05
00:27:43.536 : :Глава 06
00:31:11.494 : :Глава 07
00:34:58.346 : :Глава 08
00:39:05.843 : :Глава 09
00:44:35.422 : :Глава 10
00:49:56.034 : :Глава 11
00:53:44.221 : :Глава 12
00:58:07.734 : :Глава 13
01:05:02.064 : :Глава 14
01:11:44.842 : :Глава 15
01:15:59.638 : :Глава 16
01:21:33.805 : :Глава 17
01:26:39.986 : :Глава 18
01:33:34.650 : :Глава 19
01:39:03.938 : :Глава 20
pb.wtf



Скачать Тайна дома с часами через торрент https://d.radikal.ru/d35/1901/dc/b4a432a6570e.png Скачать, смотреть онлайн Тайна дома с часами бесплантно в хорошем качестве Описание: Первое, что услышал Льюис, ступив на порог загадочного особняка своего дяди, — это тиканье часов, раздававшееся из древних стен. ... 9.4 10 14
Info! Золотая раздача, скачанное не засчитывается.
Торрент: Зарегистрирован [2019-01-17 03:48] · скачан: 396 раз
Статус: √ проверено
Размер: 12.86 GB
Как cкачать? Как скачать Тайна дома с часами через торрент | UTorrent

% Раздел Тема Автор DL S | L
Ultra HD (UHD: 2K, 4K, 8K) — видео сверхвысокой чёткости [ 45.16 GB ] Тайна дома с часами / The House with a Clock in Its Walls [2018 UHD BDRemux 2160p] DUB [] + MVO [HDRezka Studio] sheker187 Скачать
1 | 0
Фильмы [HD 720p, 1080p] (Хороший звук DUB, MVO) [ 13.09 GB ] Тайна дома с часами / The House with a Clock in Its Walls [2018 BDRip 1080p] DUB [] bober100 Скачать
2 | 0
Фильмы 2018 [DVDrip, WEB-DLRip, HDrip] (DUB, MVO) [ 1.46 GB ] Тайна дома с часами / The House with a Clock in Its Walls [2018 BDRip] - [] Twi7ter Скачать
1 | 0
Фильмы (Blu-ray, BD-Remux, HDDVD) [ 24.63 GB ] Тайна дома с часами / The House with a Clock in Its Walls [2018 BD Remux 1080p] MVO [HDRezka Studio] +DUB [] bober100 Скачать
1 | 0
Фильмы 2018 [DVDrip, WEB-DLRip, HDrip] (DUB, MVO) [ 745 MB ] Тайна дома с часами / The House with a Clock in Its Walls [2018 BDRip] DUB [] bober100 Скачать
1 | 0
Ultra HD (UHD: 2K, 4K, 8K) — видео сверхвысокой чёткости [ 22.49 GB ] Тайна дома с часами / The House with a Clock in Its Walls [2018 UHD BDRip 2160p] [SDR] DUB [] sheker187 Скачать
1 | 0
Фильмы [HD 720p, 1080p] (Хороший звук DUB, MVO) [ 4.89 GB ] Тайна дома с часами / The House with a Clock in Its Walls [2018 BDRip 720p] DUB [] bober100 Скачать
1 | 0


Последний раз редактировалось: sheker187 (2019-01-24 14:14), всего редактировалось 1 раз

28-11-2019 20:33  

Отключить вcю реклaмy на сайте

17-01-2019 15:23 Тайна дома с часами Скачать торрент  

Жанр: Фэнтези, ужасы, триллер, комедия, детектив, семейный, экранизация
Боевик к сожалению впихнуть уже не смогли...pb.wtf



23-01-2019 17:40 Тайна дома с часами Скачать торрент  

Скучноватое кинцо...pb.wtf



20-12-2019 17:39 Тайна дома с часами Скачать торрент  

нормальн о детей проматать и фантастично на 5балоов!! не сКУЧНоpb.wtf



    Дорогой пользователь! Огромная просьба, поблагодарите релизера, оцените раздачу и оставьте свои комментарий, если Вы скачали Тайна дома с часами через торрент бесплатно!
    Комментировать посты могут только пользователи прошедшие не сложную регистрацию
    Показать сообщения:    

    Тайна дома с часами через торрент
    Скачать бесплатно Тайна дома с часами
    Тайна дома с часами скачать торрент
    Тайна дома с часами смотреть онлайн
    Cкачать фильм Тайна дома с часами бесплатно
    Тайна дома с часами скачать торрент в хорошем качестве
    Тайна дома с часами смотреть онлайн бесплатно в хорошем качестве


    Вы не можете начинать темы
    Вы не можете отвечать на сообщения
    Вы не можете редактировать свои сообщения
    Вы не можете удалять свои сообщения
    Вы не можете голосовать в опросах
    Вы не можете прикреплять файлы к сообщениям
    Вы можете скачивать файлы