Ссылка на приватное зеркало нашего сайта всего за 1$. Внимание количество ограничено!!!

2 сезон

iTunes

1 сезон

1

2 сезон

2 сезон

iTunes

1 сезон

RePack

30

Ultimate

ВАЖНО

ИГРА 18+

pack

RePack

MK11
pack

Забери бонус

RePack

jed

!!Акция!!

Alien_Rage

RePack

fifa19

RePack

Assassins Creed: Odyssey

RePack

NEED FOR SPEED™ PAYBACK

4 сезон

9 сезон

Бесстыжие 9 сезон

Все сериалы

все сериалы на PB.wtf

RePack

FAR CRY 5
  

Сеньор Авила / Sr. Ávila / Сезон: 3 / Серии: 1-10 из 10 (Фернандо Ровзар, Джордже Эдуардо Рамирез, Алехандро Лосано) [2016, боевик, триллер, драма, криминал, WEB-DL 1080p] DVO [ViruseProject] pb.wtf

Сеньор Авила через торрент pb.wtf

Размер: 19.67 GB | Добавлен: 1 год 10 мес. назад | Торрент скачан:5 раз
Скачать  

17-01-2019 05:16 Сеньор Авила Скачать торрент  

Сеньор Авила / Sr. Ávila Год выпуска: 2016
Страна: Мексика
Жанр: боевик, триллер, драма, криминал
Продолжительность: ~00:50:00 серия
Перевод: Любительский (двухголосый) | ViruseProject
Субтитры: русские (внутри контента), английские (вшитые в видеоряд)

Режиссер: Фернандо Ровзар, Джордже Эдуардо Рамирез, Алехандро Лосано

rating

В ролях:

Тони Далтон, Карлос Арагон, Камила Сельсер, Хуан Карлос Ремолина, Наилея Норвинд, Эмилио Герерро и др.

Описание:

Сеньор Авила - это история о семейном человеке среднего класса, который живет двойной жизнью: в одной он - работник страховой компании, а в другой - наемный убийца.

Качество: WEB-DL 1080p
Формат: MKV

Видео: 1 920 x 1 080 (16:9), 5 000 kb/s, 23.976 FPS, 8 bits
Аудио#1 Rus: 48.0 kHz, AC3, 2 channels, 192 kb/s
Аудио#2 Spa: 48.0 kHz, AC3, 2 channels, 224 kb/s
скриншот  скриншот  скриншот  скриншот  

General
Unique ID : 214015300577831669714342089125784844832 (0xA101D8FBEB6B23648856638483F5FA20)
Complete name : Sr.Ávila.S03E01.1080p.WEB-DL.ViruseProject.mkv
Format : Matroska
Format version : Version 4 / Version 2
File size : 2.09 GiB
Duration : 54 min 24 s
Overall bit rate mode : Variable
Overall bit rate : 5 500 kb/s
Encoded date : UTC 2018-12-20 08:01:18
Writing application : mkvmerge v8.3.0 ('Over the Horizon') 64bit
Writing library : libebml v1.3.1 + libmatroska v1.4.2

Video
ID : 1
Format : AVC
Format/Info : Advanced Video Codec
Format profile : High@L4
Format settings, CABAC : Yes
Format settings, ReFrames : 4 frames
Codec ID : V_MPEG4/ISO/AVC
Duration : 54 min 24 s
Bit rate mode : Variable
Bit rate : 5 082 kb/s
Maximum bit rate : 15.0 Mb/s
Width : 1 920 pixels
Height : 1 080 pixels
Display aspect ratio : 16:9
Frame rate mode : Constant
Frame rate : 23.976 (24000/1001) FPS
Color space : YUV
Chroma subsampling : 4:2:0
Bit depth : 8 bits
Scan type : Progressive
Bits/(Pixel*Frame) : 0.102
Stream size : 1.93 GiB (92%)
Default : Yes
Forced : No
Color range : Limited
Color primaries : BT.709
Transfer characteristics : BT.709
Matrix coefficients : BT.709

Audio #1
ID : 2
Format : AC-3
Format/Info : Audio Coding 3
Format settings, Endianness : Big
Codec ID : A_AC3
Duration : 54 min 24 s
Bit rate mode : Constant
Bit rate : 192 kb/s
Channel(s) : 2 channels
Channel positions : Front: L R
Sampling rate : 48.0 kHz
Frame rate : 31.250 FPS (1536 spf)
Bit depth : 16 bits
Compression mode : Lossy
Stream size : 74.7 MiB (3%)
Title : ViruseProject
Language : Russian
Service kind : Complete Main
Default : Yes
Forced : No

Audio #2
ID : 3
Format : E-AC-3
Format/Info : Enhanced Audio Coding 3
Format settings, Endianness : Big
Codec ID : A_EAC3
Duration : 54 min 24 s
Bit rate mode : Constant
Bit rate : 224 kb/s
Channel(s) : 2 channels
Channel positions : Front: L R
Sampling rate : 48.0 kHz
Frame rate : 187.500 FPS (256 spf)
Compression mode : Lossy
Stream size : 87.2 MiB (4%)
Language : Spanish
Service kind : Complete Main
Default : No
Forced : No

Text
ID : 4
Format : UTF-8
Codec ID : S_TEXT/UTF8
Codec ID/Info : UTF-8 Plain Text
Duration : 53 min 23 s
Bit rate : 71 b/s
Count of elements : 556
Stream size : 27.8 KiB (0%)
Title : ViruseProject
Language : Russian
Default : No
Forced : No

pb.wtf



Скачать Сеньор Авила через торрент https://i108.fastpic.ru/big/2018/1220/da/ccf710fd5fc98526e22789afb00690da.jpg Скачать фильм Сеньор Авила через торрент бесплантно в хорошем качестве Описание: Сеньор Авила - это история о семейном человеке среднего класса, который живет двойной жизнью: в одной он - работник страховой ... 10 10 2
Торрент: Зарегистрирован [2019-01-17 05:16] · скачан: 5 раз
Статус: √ проверено
Размер: 19.67 GB
Как cкачать? Как скачать Сеньор Авила через торрент | qTorrent

% Раздел Тема Автор DL S | L
Зарубежные сериалы [ 5.03 GB ] Сеньор Авила / Sr. Avila / Сезон: 1 / Серии 1-3 из 13 [2013 WEBRip 1080p] [MVO] killermax2013 Скачать
1 | 0

28-11-2019 20:33  

Отключить всю рекламу на сайте

    Дорогой пользователь! Огромная просьба, поблагодарите релизера, оцените раздачу и оставьте свои комментарий, если Вы скачали Сеньор Авила через торрент бесплатно! Внесите свою лепту в развитие PiratBit!
    Комментировать посты могут только пользователи прошедшие не сложную регистрацию
    Показать сообщения:    

    Сеньор Авила через торрент
    Скачать бесплатно Сеньор Авила
    Сеньор Авила скачать торрент
    Сеньор Авила смотреть онлайн
    Cкачать фильм Сеньор Авила бесплатно
    Сеньор Авила скачать торрент в хорошем качестве
    Сеньор Авила смотреть онлайн бесплатно в хорошем качестве


    Вы не можете начинать темы
    Вы не можете отвечать на сообщения
    Вы не можете редактировать свои сообщения
    Вы не можете удалять свои сообщения
    Вы не можете голосовать в опросах
    Вы не можете прикреплять файлы к сообщениям
    Вы можете скачивать файлы