новый адрес
Ссылка на приватное зеркало всего за 1$. Внимание количество ограничено!!!

iTunes

1+1

iTunes

мы

iTunes

1

iTunes

Чернобыль

iTunes

Ральф против интернета

Лицензия

ПШазам

Лицензия

Оно 2

Лицензия

30
pack

Вам бонус

ВАЖНО

!!Акция!!

Alien_RageХит недели

RePack

Resident Evil 21

ИГРА 18+

pack

RePack

jed

!!Акция!!

Alien_Rage

RePack

fifa19

RePack

Assassins Creed: Odyssey

RePack

NEED FOR SPEED™ PAYBACK

3 сезон

9 сезон

Бесстыжие 9 сезон

Все сериалы

все сериалы на PB.wtf

RePack

FAR CRY 5
Ребята, катастрофически не хватает 1900р. для оплаты серверов за Октябрь (всвязи с блокировками трафик упал в 3 раза), 1-2р., выручайте.
  

Девушка, которая застряла в паутине / The Girl in the Spider's Web (Федерико Альварес) [2018, триллер, драма, криминал, WEB-DLRip-AVC] 2x[DUB] (Rus, Ukr) [iTunes] pb.wtf

Девушка, которая застряла в паутине через торрент pb.wtf

Раздают: 2 [ 0 KB/s ]
Размер: 2.08 GB | Добавлен: 10 мес. назад | Торрент скачан:651 раз
Скачать  

17-01-2019 07:51 Девушка, которая застряла в паутине Скачать торрент  


Девушка, которая застряла в паутине / The Girl in the Spider's Web


Год выпуска: 2018
Страна: Великобритания, Германия, Швеция, Канада, США
Жанр: триллер, драма, криминал
Продолжительность: 01:55:24
Перевод: Дубляж [iTunes]
Субтитры: Русские (форс., полные), Украинские (полные), Английские

Режиссер: Федерико Альварес
В ролях: Клер Фой, Сверрир Гуднасон, Сильвия Хукс, Лакит Стэнфилд, Стивен Мерчант, Камерон Бриттон, Вики Крипс, Фолькер Брух, Микаэл Персбрандт, Клас Банг
Описание: Хакер Лисбет Саландер и журналист Микаэль Блумквист оказываются втянуты в историю с участием шпионов, киберпреступников и коррумпированных чиновников.

rating

Качество видео: WEB-DLRip-AVC [The.Girl.in.the.Spiders.Web.2019.1080p.WEB-DL.H264.AC3-EVO]
Формат видео: MKV
Видео: 1120x464 (2,40:1), 23.976 fps, x264 ~1571 kbps avg, 0.126 bit/pixel
Аудио 1: 48 kHz, AC3 Dolby Digital, 6 ch, ~384 kbps (RUS) - iTunes
Аудио 2: 48 kHz, AC3 Dolby Digital, 2/0 (L,R) ch, ~192 kbps avg (UKR) - DUB
Аудио 3: 48 kHz, AC3 Dolby Digital, 3/2 (L,C,R,l,r) + LFE ch, ~384 kbps (ENG)
Полное имя : D:\Devushka_kotoraya_zastryala_v_pautine_2018_WEB-DLRip-AVC_iT_by_Dalemake.mkv
Формат : Matroska
Версия формата : Version 4 / Version 2
Размер файла : 2,08 Гбайт
Продолжительность : 1 ч. 55 м.
Общий поток : 2582 Кбит/сек
Название фильма : [The_Girl_in_the_Spider's_Web_2018_All Films_Rutracker.org_by Dalemake]
Дата кодирования : UTC 2019-01-17 05:59:19
Программа кодирования : mkvmerge v6.1.0 ('Old Devil') built on Mar 4 2013 09:10:42
Библиотека кодирования : libebml v1.3.0 + libmatroska v1.4.0

Видео
Идентификатор : 1
Формат : AVC
Формат/Информация : Advanced Video Codec
Профиль формата : High@L4.1
Параметр CABAC формата : Да
Параметр ReFrames формата : 10 кадров
Идентификатор кодека : V_MPEG4/ISO/AVC
Продолжительность : 1 ч. 55 м.
Битрейт : 1571 Кбит/сек
Ширина : 1120 пикселей
Высота : 464 пикселя
Соотношение сторон : 2,40:1
Режим частоты кадров : Постоянный
Частота кадров : 23,976 кадра/сек
Цветовое пространство : YUV
Субдискретизация насыщенности : 4:2:0
Битовая глубина : 8 бит
Тип развёртки : Прогрессивная
Бит/(Пиксели*Кадры) : 0.126
Размер потока : 1,27 Гбайт (61%)
Заголовок : [The_Girl_in_the_Spider's_Web_2018_All Films_Rutracker.org_by Dalemake]
Библиотека кодирования : x264 core 157 r2935 545de2f
Настройки программы : cabac=1 / ref=10 / deblock=1:-2:-2 / analyse=0x3:0x133 / me=umh / subme=10 / psy=1 / psy_rd=1.00:0.00 / mixed_ref=1 / me_range=24 / chroma_me=1 / trellis=2 / 8x8dct=1 / cqm=0 / deadzone=21,11 / fast_pskip=1 / chroma_qp_offset=-4 / threads=6 / lookahead_threads=1 / sliced_threads=0 / nr=0 / decimate=0 / interlaced=0 / bluray_compat=0 / constrained_intra=0 / bframes=11 / b_pyramid=2 / b_adapt=2 / b_bias=0 / direct=1 / weightb=1 / open_gop=0 / weightp=2 / keyint=240 / keyint_min=23 / scenecut=40 / intra_refresh=0 / rc_lookahead=60 / rc=crf / mbtree=0 / crf=19.1 / qcomp=0.60 / qpmin=0 / qpmax=69 / qpstep=4 / vbv_maxrate=50000 / vbv_bufsize=62500 / crf_max=0.0 / nal_hrd=none / filler=0 / ip_ratio=1.40 / pb_ratio=1.35 / aq=1:1.00
Язык : English
Default : Да
Forced : Нет

Аудио #1
Идентификатор : 2
Формат : AC-3
Формат/Информация : Audio Coding 3
Расширение режима : CM (complete main)
Параметр Endianness формата : Big
Идентификатор кодека : A_AC3
Продолжительность : 1 ч. 55 м.
Вид битрейта : Постоянный
Битрейт : 384 Кбит/сек
Каналы : 6 каналов
Расположение каналов : Front: L C R, Side: L R, LFE
Частота : 48,0 КГц
Метод сжатия : С потерями
Размер потока : 317 Мбайт (15%)
Заголовок : Dub - iTunes Russia
Язык : Russian
Default : Да
Forced : Нет

Аудио #2
Идентификатор : 3
Формат : AC-3
Формат/Информация : Audio Coding 3
Расширение режима : CM (complete main)
Параметр Endianness формата : Big
Идентификатор кодека : A_AC3
Продолжительность : 1 ч. 55 м.
Вид битрейта : Постоянный
Битрейт : 192 Кбит/сек
Каналы : 2 канала
Расположение каналов : Front: L R
Частота : 48,0 КГц
Метод сжатия : С потерями
Размер потока : 158 Мбайт (7%)
Заголовок : Dub
Язык : Ukrainian
Default : Нет
Forced : Нет

Аудио #3
Идентификатор : 4
Формат : AC-3
Формат/Информация : Audio Coding 3
Расширение режима : CM (complete main)
Параметр Endianness формата : Big
Идентификатор кодека : A_AC3
Продолжительность : 1 ч. 55 м.
Вид битрейта : Постоянный
Битрейт : 384 Кбит/сек
Каналы : 6 каналов
Расположение каналов : Front: L C R, Side: L R, LFE
Частота : 48,0 КГц
Метод сжатия : С потерями
Размер потока : 317 Мбайт (15%)
Заголовок : Original
Язык : English
Default : Нет
Forced : Нет

Текст #1
Идентификатор : 5
Формат : UTF-8
Идентификатор кодека : S_TEXT/UTF8
Идентификатор кодека/Информация : UTF-8 Plain Text
Заголовок : Forced
Язык : Russian
Default : Да
Forced : Да

Текст #2
Идентификатор : 6
Формат : UTF-8
Идентификатор кодека : S_TEXT/UTF8
Идентификатор кодека/Информация : UTF-8 Plain Text
Заголовок : Full
Язык : Russian
Default : Нет
Forced : Нет

Текст #3
Идентификатор : 7
Формат : UTF-8
Идентификатор кодека : S_TEXT/UTF8
Идентификатор кодека/Информация : UTF-8 Plain Text
Заголовок : Full
Язык : Ukrainian
Default : Нет
Forced : Нет

Текст #4
Идентификатор : 8
Формат : UTF-8
Идентификатор кодека : S_TEXT/UTF8
Идентификатор кодека/Информация : UTF-8 Plain Text
Заголовок : Full
Язык : English
Default : Нет
Forced : Нет

Меню
00:00:00.000 : en:1
00:10:23.915 : en:2
00:16:32.867 : en:3
00:21:05.431 : en:4
00:27:34.445 : en:5
00:34:20.058 : en:6
00:41:41.040 : en:7
00:48:24.318 : en:8
00:58:39.182 : en:9
01:05:56.827 : en:10
01:10:31.977 : en:11
01:20:03.923 : en:12
01:27:18.899 : en:13
01:35:05.532 : en:14
01:38:04.127 : en:15
01:43:16.564 : en:16
скриншот  скриншот  скриншот  
pb.wtf



Скачать Девушка, которая застряла в паутине через торрент https://i97.fastpic.ru/big/2018/1112/49/fe581a461646be1e2eac5e51e131e249.jpg Скачать фильм Девушка, которая застряла в паутине через торрент бесплантно в хорошем качестве Описание: Хакер Лисбет Саландер и журналист Микаэль Блумквист оказываются втянуты в историю с участием шпионов, киберпреступников и ... 10 10 11
Торрент: Зарегистрирован [2019-01-17 07:51] · скачан: 651 раз
Статус: √ проверено
Размер: 2.08 GB
Как cкачать? Как скачать Девушка, которая застряла в паутине через торрент | qTorrent

Отключить всю рекламу на сайте

18-01-2019 15:16 Девушка, которая застряла в паутине Скачать торрент  

За раздачу спасибо. А вот фильм редкая муть. Вот от начала и до конца. Постановка очень не плохая, экшн - вот это все, но сюжет прям никакой. Зачем было вообще снимать фильм такой - не понятно. Поднять на хайпе "девушки с драконом" ? Так этот фильм уже поди забыли все.

При таком сюжете нужно подключать IT-шников с гугла, я понимаю, что недешево, но снимать откровенную "пургу" тоже не стоит. Даже дилентант в сетях не "съест" эту киноленту.

Категорически не смотреть!pb.wtf



25-01-2019 16:05 Девушка, которая застряла в паутине Скачать торрент  

Жалкое подобие "Девушки с татуировкой дракона"! Но, смотрибельно.pb.wtf



    Дорогой пользователь! Огромная просьба, поблагодарите релизера, оцените раздачу и оставьте свои комментарий, если Вы скачали Девушка, которая застряла в паутине через торрент бесплатно! Внесите свою лепту в развитие PiratBit!
    Комментировать посты могут только пользователи прошедшие не сложную регистрацию
    Показать сообщения:    

    Девушка, которая застряла в паутине через торрент
    Скачать бесплатно Девушка, которая застряла в паутине
    Девушка, которая застряла в паутине скачать торрент
    Девушка, которая застряла в паутине смотреть онлайн
    Cкачать фильм Девушка, которая застряла в паутине бесплатно
    Девушка, которая застряла в паутине скачать торрент в хорошем качестве
    Девушка, которая застряла в паутине смотреть онлайн бесплатно в хорошем качестве


    Вы не можете начинать темы
    Вы не можете отвечать на сообщения
    Вы не можете редактировать свои сообщения
    Вы не можете удалять свои сообщения
    Вы не можете голосовать в опросах
    Вы не можете прикреплять файлы к сообщениям
    Вы можете скачивать файлы