Ссылка на приватное зеркало нашего сайта всего за 1$. Внимание количество ограничено!!!

2 сезон

iTunes

1 сезон

1

2 сезон

2 сезон

iTunes

1 сезон

RePack

30

Новинка

ВАЖНО

ИГРА 18+

pack

RePack

MK11
pack

Забери бонус

RePack

jed

!!Акция!!

Alien_Rage

RePack

fifa19

RePack

Assassins Creed: Odyssey

RePack

NEED FOR SPEED™ PAYBACK

4 сезон

9 сезон

Бесстыжие 9 сезон

Все сериалы

все сериалы на PB.wtf

RePack

FAR CRY 5
  

Счастливы вместе / Happy Together / Сезон: 1 / Серии: 1-13 из 13 (Энди Экерман, Фил Льюиси) [2018, комедия, WEB-DL 720p] MVO [Jaskier] pb.wtf

Счастливы вместе через торрент pb.wtf

Размер: 6.93 GB | Добавлен: 1 год 10 мес. назад | Торрент скачан:4 раза
Скачать  

17-01-2019 08:51 Счастливы вместе Скачать торрент  

Счастливы вместе / Happy Together

Год выпуска: 2018
Страна: США
Жанр: комедия
Продолжительность: ~ 00:25:00
Перевод: Профессиональный (многоголосый закадровый) | Jaskier

Режиссёр: Энди Экерман, Фил Льюис

В ролях:

Дэймон Уайанс мл., Рич Морроу, Эмбер Стивенс, Тим Медоуз, Стефни Уир, Крис Парнелл, Ким Делгадо, Хашим Лафон, Анджела Малхотра

Описание:

Главные герои давно проживают в браке и не знают хлопот. Однако судьба преподносит им парочку незначительных забот которые превращаются в настоящую катастрофу. Временно под одной крышей с семьей будет жить молодой музыкант Гарри Стайлз, который когда-то давно пытался добиться успеха в роли солиста группы "Уан Дирекшн". Правда, тому пока что даже жить негде, поэтому он обращается к своему приятелю-продюсеру Бену Уинстону, который проживает в Лондоне. Впереди главных героев ждет две долгих недели, полных хлопот. Однако муж с женой пока даже не подозревают, что Гарри останется у них не на две недели, а на все двадцать.



Качество: WEB-DL 720p
Формат: MKV

Видео: 1280x720 (16:9) | X264 | ~2401 kbps | 23.976 fps
Аудио 1: AC3, 48,0 КГц, 6 ch, 384 kbps - [RUS]
Аудио 2: AC3, 48,0 КГц, 6 ch, 384 kbps - [ENG]
Переведено и озвучено: студией Jaskier
Общее
Уникальный идентификатор                 : 19963604365554217780328351076301941703 (0xF04D9B02E396F6EF8D56C3E5CE82BC7)
Полное имя                               : G:\Jaskier\Happy.Together Season 1 (WEB-DL l 720p l Jaskier)\Happy.Together.S01E01.WEB-DL.720p.Jaskier.mkv
Формат                                   : Matroska
Версия формата                           : Version 4 / Version 2
Размер файла                             : 494 Мбайт
Продолжительность                        : 21 м. 47 с.
Общий поток                              : 3171 Кбит/сек
Дата кодирования                         : UTC 2018-10-03 16:19:03
Программа кодирования                    : mkvmerge v19.0.0 ('Brave Captain') 64-bit
Библиотека кодирования                   : libebml v1.3.5 + libmatroska v1.4.8

Видео
Идентификатор                            : 1
Формат                                   : AVC
Формат/Информация                        : Advanced Video Codec
Профиль формата                          : High@L3.1
Настройки формата                        : CABAC / 5 Ref Frames
Параметр CABAC формата                   : Да
Параметр RefFrames формата               : 5 кадров
Идентификатор кодека                     : V_MPEG4/ISO/AVC
Продолжительность                        : 21 м. 47 с.
Битрейт                                  : 2401 Кбит/сек
Ширина                                   : 1280 пикселей
Высота                                   : 720 пикселей
Соотношение сторон                       : 16:9
Режим частоты кадров                     : Постоянный
Частота кадров                           : 23,976 (24000/1001) кадра/сек
Цветовое пространство                    : YUV
Субдискретизация насыщенности            : 4:2:0
Битовая глубина                          : 8 бит
Тип развёртки                            : Прогрессивная
Бит/(Пиксели*Кадры)                      : 0.109
Размер потока                            : 374 Мбайт (76%)
Default                                  : Да
Forced                                   : Нет
Цветовой диапазон                        : Limited
Основные цвета                           : BT.709
Характеристики трансфера                 : BT.709
Коэффициенты матрицы                     : BT.709

Аудио #1
Идентификатор                            : 2
Формат                                   : AC-3
Формат/Информация                        : Audio Coding 3
Идентификатор кодека                     : A_AC3
Продолжительность                        : 21 м. 47 с.
Вид битрейта                             : Постоянный
Битрейт                                  : 384 Кбит/сек
Каналы                                   : 6 каналов
Расположение каналов                     : Front: L C R, Side: L R, LFE
Частота                                  : 48,0 КГц
Частота кадров                           : 31,250 кадров/сек (1536 SPF)
Битовая глубина                          : 16 бит
Метод сжатия                             : С потерями
Размер потока                            : 59,9 Мбайт (12%)
Язык                                     : Russian
ServiceKind/String                       : Complete Main
Default                                  : Да
Forced                                   : Нет

Аудио #2
Идентификатор                            : 3
Формат                                   : AC-3
Формат/Информация                        : Audio Coding 3
Идентификатор кодека                     : A_AC3
Продолжительность                        : 21 м. 47 с.
Вид битрейта                             : Постоянный
Битрейт                                  : 384 Кбит/сек
Каналы                                   : 6 каналов
Расположение каналов                     : Front: L C R, Side: L R, LFE
Частота                                  : 48,0 КГц
Частота кадров                           : 31,250 кадров/сек (1536 SPF)
Битовая глубина                          : 16 бит
Метод сжатия                             : С потерями
Размер потока                            : 59,9 Мбайт (12%)
Язык                                     : English
ServiceKind/String                       : Complete Main
Default                                  : Нет
Forced                                   : Нет
скриншот  скриншот  скриншот  
pb.wtf



Скачать Счастливы вместе через торрент http://i91.fastpic.ru/big/2018/1003/df/11aae5c329d0c4b9c922f86559b094df.png Скачать фильм Счастливы вместе через торрент бесплантно в хорошем качестве Описание:Главные герои давно проживают в браке и не знают хлопот. Однако судьба преподносит им парочку незначительных забот которые ... 10 10 2
Торрент: Зарегистрирован [2019-01-17 08:51] · скачан: 4 раз
Статус: √ проверено
Размер: 6.93 GB
Как cкачать? Как скачать Счастливы вместе через торрент | qTorrent

% Раздел Тема Автор DL S | L
Зарубежные сериалы [ 3.62 GB ] Счастливы вместе / Happy Together / Сезон: 1 / Серии: 1-13 из 13 [2018 WEB-DLRip] MVO [Jaskier] bober100 Скачать
1 | 0

28-11-2019 20:33  

Отключить всю рекламу на сайте

    Дорогой пользователь! Огромная просьба, поблагодарите релизера, оцените раздачу и оставьте свои комментарий, если Вы скачали Счастливы вместе через торрент бесплатно! Внесите свою лепту в развитие PiratBit!
    Комментировать посты могут только пользователи прошедшие не сложную регистрацию
    Показать сообщения:    

    Счастливы вместе через торрент
    Скачать бесплатно Счастливы вместе
    Счастливы вместе скачать торрент
    Счастливы вместе смотреть онлайн
    Cкачать фильм Счастливы вместе бесплатно
    Счастливы вместе скачать торрент в хорошем качестве
    Счастливы вместе смотреть онлайн бесплатно в хорошем качестве


    Вы не можете начинать темы
    Вы не можете отвечать на сообщения
    Вы не можете редактировать свои сообщения
    Вы не можете удалять свои сообщения
    Вы не можете голосовать в опросах
    Вы не можете прикреплять файлы к сообщениям
    Вы можете скачивать файлы