Ссылка на приватное зеркало всего за 1$. Внимание количество ограничено!!!

OK

1+1

iTunes

мы

OK

1

WEB-DLRip

Джокер

Пифагор

Ведьмак / The Witcher сериал

Лицензия

ПШазам

ОК

Оно 2

iTunes

30
pack

Вам бонус

ВАЖНО

!!Акция!!

Alien_RageХит недели

RePack

Resident Evil 21

ИГРА 18+

pack

RePack

jed

!!Акция!!

Alien_Rage

RePack

fifa19

RePack

Assassins Creed: Odyssey

RePack

NEED FOR SPEED™ PAYBACK

4 сезон

9 сезон

Бесстыжие 9 сезон

Все сериалы

все сериалы на PB.wtf

RePack

FAR CRY 5
  

Люди Альфа / Alphas / Сезон: 1 / Серии: 1-11 из 11 (Ник Копус, Мэттью Хатингс) [2011, фантастика, боевик, триллер, драма, WEB-DL 1080p] [AMZN] MVO [LostFilm] pb.wtf

Люди Альфа через торрент pb.wtf

Размер: 40.45 GB | Добавлен: 1 год назад | Торрент скачан:10 раз
Скачать  

17-01-2019 09:04 Люди Альфа Скачать торрент  

Люди Альфа / Alphas rating

Год выпуска: 2011
Страна: США
Жанр: фантастика, боевик, триллер, драма
Продолжительность серии: 00:43:00
Перевод: профессиональный многоголосый закадровый | LostFilm
Русские субтитры: нет
Субтитры: Английские

Режиссёр: Jack Bender, Constantine Makris, Nick Copus



В ролях:

Дэвид Стрэтэйрн, Райан Картрайт, Уоррен Кристи, Азита Ганизада, Лаура Меннелл, Мэлик Йоба, Махершалалхашбаз Али, Кэтлин Гати, Джо Пинг, Каллум Кит Ренни

Описание:

Эксперт минобороны Ли Розен, специализируется на необычных явлениях, и он лидер команды из пяти человек с мозговыми аномалиями. По отдельности члены группы мало отличаются от обычных людей, но вместе способны демонстрировать чудеса умственной и физической деятельности.

Качество: WEB-DL(Amazon) 1080p
Формат: MKV
Видео кодек: H.264
Аудио кодек: AC3

Видео: x264, 1920x1080 (16:9), 23.976 fps, ~10-15 Mbps
Аудио #1: 48 kHz, Dolby Digital 5.1 @ 384 kbps |Многоголосый закадровый, LostFilm| by Nez
Аудио #2: 48 kHz, Dolby Digital+ 5.1 @ 640 kbps


Реклама: Отсутствует
1. Pilot / Пилот / 1:04:15
2. Cause and Effect / Причина и следствие / 41:50
3. Anger Management / Управление гневом / 43:18
4. Rosetta / Розеттский камень / 43:53
5. Never Let Me Go / Не отпускай меня / 43:13
6. Bill and Gary's Excellent Adventure / Великолепные приключения Билла и Гари / 43:07
7. Catch and Release / Поймать и отпустить / 42:18
8. A Short Time in Paradise / Мгновение в раю / 43:08
9. Blind Spot / Слепое пятно / 42:47
10. The Unusual Suspects / Неожиданные подозреваемые / 43:05
11. Original Sin / Первородный грех / 45:32
General
Unique ID : 210617273215000468149903587970044959156 (0x9E73694CDB6879C8ADE084F32B8C99B4)
Complete name : /home/files/Alphas.S01.1080p.WEB-DL.AMZN.DD5.1.Rus.Eng/Alphas.S01E01.Alphas.Pilot.1080p.WEB-DL.Rus.Eng.mkv
Format : Matroska
Format version : Version 4 / Version 2
File size : 3.87 GiB
Duration : 1h 4mn
Overall bit rate mode : Variable
Overall bit rate : 8 626 Kbps
Encoded date : UTC 2017-12-07 17:50:57
Writing application : mkvmerge v17.0.0 ('Be Ur Friend') 64-bit
Writing library : libebml v1.3.5 + libmatroska v1.4.8
DURATION : 01:04:15.232000000
NUMBER_OF_FRAMES : 120476
NUMBER_OF_BYTES : 185051136
_STATISTICS_WRITING_APP : mkvmerge v17.0.0 ('Be Ur Friend') 64-bit
_STATISTICS_WRITING_DATE_UTC : 2017-12-07 17:50:57
_STATISTICS_TAGS : BPS DURATION NUMBER_OF_FRAMES NUMBER_OF_BYTES

Video
ID : 2
Format : AVC
Format/Info : Advanced Video Codec
Format profile : High@L4.0
Format settings, CABAC : Yes
Format settings, ReFrames : 4 frames
Codec ID : V_MPEG4/ISO/AVC
Duration : 1h 4mn
Bit rate mode : Variable
Bit rate : 7 431 Kbps
Maximum bit rate : 15.0 Mbps
Width : 1 920 pixels
Height : 1 080 pixels
Display aspect ratio : 16:9
Frame rate mode : Constant
Frame rate : 23.976 fps
Color space : YUV
Chroma subsampling : 4:2:0
Bit depth : 8 bits
Scan type : Progressive
Bits/(Pixel*Frame) : 0.149
Stream size : 3.34 GiB (86%)
Writing library : x264 core 148 r2623 d5b2374
Encoding settings : cabac=1 / ref=4 / deblock=1:-1:-1 / analyse=0x3:0x133 / me=umh / subme=9 / psy=1 / psy_rd=1.00:0.15 / mixed_ref=1 / me_range=24 / chroma_me=1 / trellis=2 / 8x8dct=1 / cqm=0 / deadzone=21,11 / fast_pskip=1 / chroma_qp_offset=-3 / threads=34 / lookahead_threads=5 / sliced_threads=0 / nr=150 / decimate=1 / interlaced=0 / bluray_compat=0 / constrained_intra=0 / bframes=8 / b_pyramid=2 / b_adapt=2 / b_bias=0 / direct=3 / weightb=1 / open_gop=0 / weightp=2 / keyint=120 / keyint_min=61 / scenecut=0 / intra_refresh=0 / rc_lookahead=120 / rc=crf / mbtree=1 / crf=18.0 / qcomp=0.60 / qpmin=0 / qpmax=69 / qpstep=4 / vbv_maxrate=15000 / vbv_bufsize=31250 / crf_max=0.0 / nal_hrd=vbr / filler=0 / ip_ratio=1.40 / aq=3:1.00
Default : Yes
Forced : No
Color primaries : BT.709
Transfer characteristics : BT.709
Matrix coefficients : BT.709

Audio #1
ID : 1
Format : AC-3
Format/Info : Audio Coding 3
Mode extension : CM (complete main)
Format settings, Endianness : Big
Codec ID : A_AC3
Duration : 1h 4mn
Bit rate mode : Constant
Bit rate : 384 Kbps
Channel(s) : 6 channels
Channel positions : Front: L C R, Side: L R, LFE
Sampling rate : 48.0 KHz
Bit depth : 16 bits
Compression mode : Lossy
Stream size : 176 MiB (4%)
Language : Russian
Default : Yes
Forced : No

Audio #2
ID : 3
Format : E-AC-3
Format/Info : Audio Coding 3
Format settings, Endianness : Big
Codec ID : A_EAC3
Duration : 1h 4mn
Bit rate mode : Constant
Bit rate : 640 Kbps
Channel(s) : 6 channels
Channel positions : Front: L C R, Side: L R, LFE
Sampling rate : 48.0 KHz
Compression mode : Lossy
Stream size : 294 MiB (7%)
Language : English
Default : No
Forced : No

Text
ID : 4
Format : UTF-8
Codec ID : S_TEXT/UTF8
Codec ID/Info : UTF-8 Plain Text
Language : English
Default : No
Forced : No
скриншот  скриншот  скриншот  скриншот  скриншот  
pb.wtf



Скачать Люди Альфа через торрент http://i40.fastpic.ru/big/2012/0728/d8/6dfbc931755d772e73c243147cce81d8.jpg Скачать фильм Люди Альфа через торрент бесплантно в хорошем качестве Описание: Эксперт минобороны Ли Розен, специализируется на необычных явлениях, и он лидер команды из пяти человек с мозговыми аномалиями. ... 7.8 10 4
Торрент: Зарегистрирован [2019-01-17 09:04] · скачан: 10 раз
Статус: √ проверено
Размер: 40.45 GB
Как cкачать? Как скачать Люди Альфа через торрент | qTorrent

% Раздел Тема Автор DL S | L
Зарубежные сериалы [ 5.36 GB ] Люди-Альфа / Alphas [2011 WEB-DLRip] {LostFilm} Romeo0502 Скачать
1 | 0
Зарубежные сериалы [ 17.14 GB ] Люди Альфа / Alphas [2011 WEB-DLRip-720p] lyokaa Скачать
1 | 0

28-11-2019 20:33  

Отключить всю рекламу на сайте

    Дорогой пользователь! Огромная просьба, поблагодарите релизера, оцените раздачу и оставьте свои комментарий, если Вы скачали Люди Альфа через торрент бесплатно! Внесите свою лепту в развитие PiratBit!
    Комментировать посты могут только пользователи прошедшие не сложную регистрацию
    Показать сообщения:    

    Люди Альфа через торрент
    Скачать бесплатно Люди Альфа
    Люди Альфа скачать торрент
    Люди Альфа смотреть онлайн
    Cкачать фильм Люди Альфа бесплатно
    Люди Альфа скачать торрент в хорошем качестве
    Люди Альфа смотреть онлайн бесплатно в хорошем качестве


    Вы не можете начинать темы
    Вы не можете отвечать на сообщения
    Вы не можете редактировать свои сообщения
    Вы не можете удалять свои сообщения
    Вы не можете голосовать в опросах
    Вы не можете прикреплять файлы к сообщениям
    Вы можете скачивать файлы