Ссылка на приватное зеркало нашего сайта всего за 1$. Внимание количество ограничено!!!

2 сезон

iTunes

1 сезон

1

2 сезон

2 сезон

iTunes

1 сезон

RePack

30

Ultimate

ВАЖНО

ИГРА 18+

pack

RePack

MK11
pack

Забери бонус

RePack

jed

!!Акция!!

Alien_Rage

RePack

fifa19

RePack

Assassins Creed: Odyssey

RePack

NEED FOR SPEED™ PAYBACK

4 сезон

9 сезон

Бесстыжие 9 сезон

Все сериалы

все сериалы на PB.wtf

RePack

FAR CRY 5
  

Люди Альфа / Alphas / Сезон: 2 / Серии: 1-13 из 13 (Ник Копус, Мэттью Хатингс) [2012, фантастика, боевик, триллер, драма, WEB-DL 1080p] [AMZN] MVO [LostFilm] pb.wtf

Люди Альфа через торрент pb.wtf

Размер: 45.22 GB | Добавлен: 1 год 10 мес. назад | Торрент скачан:5 раз
Скачать  

17-01-2019 09:09 Люди Альфа Скачать торрент  

Люди Альфа / Alphas Год выпуска: 2012
Страна: США
Жанр: фантастика, боевик, триллер, драма
Продолжительность серии: 00:43:00
Перевод: профессиональный многоголосый закадровый | LostFilm
Субтитры: Английские

Режиссёр: Jack Bender, Constantine Makris, Nick Copus

rating

В ролях:

Дэвид Стрэтэйрн, Райан Картрайт, Уоррен Кристи, Азита Ганизада, Лаура Меннелл, Мэлик Йоба, Махершалалхашбаз Али, Кэтлин Гати, Джо Пинг, Каллум Кит Ренни

Описание:

Эксперт минобороны Ли Розен, специализируется на необычных явлениях, и он лидер команды из пяти человек с мозговыми аномалиями. По отдельности члены группы мало отличаются от обычных людей, но вместе способны демонстрировать чудеса умственной и физической деятельности.

b]Качество: WEB-DL(Amazon) 1080p
Формат: MKV
Видео кодек: H.264
Аудио кодек: AC3

Видео: x264, 1920x1080 (16:9), 23.976 fps, ~10-15 Mbps
Аудио #1: 48 kHz, Dolby Digital 5.1 @ 384 kbps |Многоголосый закадровый, LostFilm| by Nez
Аудио #2: 48 kHz, Dolby Digital+ 5.1 @ 640 kbps


Реклама: Отсутствует
01: Wake Up Call / Пробуждение
02: The Quick and the Dead / Быстрый и мертвый
03: Alpha Dogs / Альфа-доги
04: When Push Comes to Shove / Когда нет другого выхода
05: Gaslight / Заблуждение
06: Alphaville / Альфавилль
07: Gods and Monsters / Боги и монстры
08: Falling / Падение
09: The Devil Will Drag You Under / Дьявол тебя погубит
10: Life After Death / Жизнь после смерти
11: If Memory Serves / Если память не изменяет
12: Need to Know / Надо знать
13: God's Eye / Божье око
General
Unique ID : 195907886057973911137698922344233773926 (0x93627C855EBB9C29A66ACA872A872B66)
Complete name : /home/files/Alphas.S02.1080p.AMZN.WEB-DL.DD5.1.Rus.Eng/Alphas.S02E01.Wake.Up.Call.1080p.WEB-DL.Rus.Eng.mkv
Format : Matroska
Format version : Version 4 / Version 2
File size : 3.46 GiB
Duration : 43mn 52s
Overall bit rate mode : Variable
Overall bit rate : 11.3 Mbps
Movie name : Episode 1
Encoded date : UTC 2017-12-20 11:01:59
Writing application : mkvmerge v17.0.0 ('Be Ur Friend') 64-bit
Writing library : libebml v1.3.5 + libmatroska v1.4.8
DURATION : 00:42:51.036000000
NUMBER_OF_FRAMES : 899
NUMBER_OF_BYTES : 25395
_STATISTICS_WRITING_APP : mkvmerge v17.0.0 ('Be Ur Friend') 64-bit
_STATISTICS_WRITING_DATE_UTC : 2017-12-20 11:01:59
_STATISTICS_TAGS : BPS DURATION NUMBER_OF_FRAMES NUMBER_OF_BYTES

Video
ID : 1
Format : AVC
Format/Info : Advanced Video Codec
Format profile : High@L4.0
Format settings, CABAC : Yes
Format settings, ReFrames : 4 frames
Codec ID : V_MPEG4/ISO/AVC
Duration : 43mn 52s
Bit rate mode : Variable
Bit rate : 10.0 Mbps
Maximum bit rate : 15.0 Mbps
Width : 1 920 pixels
Height : 1 080 pixels
Display aspect ratio : 16:9
Frame rate mode : Constant
Frame rate : 23.976 fps
Color space : YUV
Chroma subsampling : 4:2:0
Bit depth : 8 bits
Scan type : Progressive
Bits/(Pixel*Frame) : 0.202
Stream size : 3.08 GiB (89%)
Writing library : x264 core 148 r2623 d5b2374
Encoding settings : cabac=1 / ref=4 / deblock=1:-1:-1 / analyse=0x3:0x133 / me=umh / subme=9 / psy=1 / psy_rd=1.00:0.15 / mixed_ref=1 / me_range=24 / chroma_me=1 / trellis=2 / 8x8dct=1 / cqm=0 / deadzone=21,11 / fast_pskip=1 / chroma_qp_offset=-3 / threads=34 / lookahead_threads=5 / sliced_threads=0 / nr=150 / decimate=1 / interlaced=0 / bluray_compat=0 / constrained_intra=0 / bframes=8 / b_pyramid=2 / b_adapt=2 / b_bias=0 / direct=3 / weightb=1 / open_gop=0 / weightp=2 / keyint=120 / keyint_min=61 / scenecut=0 / intra_refresh=0 / rc_lookahead=120 / rc=crf / mbtree=1 / crf=18.0 / qcomp=0.60 / qpmin=0 / qpmax=69 / qpstep=4 / vbv_maxrate=15000 / vbv_bufsize=31250 / crf_max=0.0 / nal_hrd=vbr / filler=0 / ip_ratio=1.40 / aq=3:1.00
Default : Yes
Forced : No
Color primaries : BT.709
Transfer characteristics : BT.709
Matrix coefficients : BT.709

Audio #1
ID : 2
Format : AC-3
Format/Info : Audio Coding 3
Mode extension : CM (complete main)
Format settings, Endianness : Big
Codec ID : A_AC3
Duration : 43mn 52s
Bit rate mode : Constant
Bit rate : 384 Kbps
Channel(s) : 6 channels
Channel positions : Front: L C R, Side: L R, LFE
Sampling rate : 48.0 KHz
Bit depth : 16 bits
Compression mode : Lossy
Delay relative to video : 10ms
Stream size : 121 MiB (3%)
Title : LostFilm
Language : Russian
Default : Yes
Forced : No

Audio #2
ID : 3
Format : E-AC-3
Format/Info : Audio Coding 3
Format settings, Endianness : Big
Codec ID : A_EAC3
Duration : 43mn 52s
Bit rate mode : Constant
Bit rate : 640 Kbps
Channel(s) : 6 channels
Channel positions : Front: L C R, Side: L R, LFE
Sampling rate : 48.0 KHz
Compression mode : Lossy
Stream size : 201 MiB (6%)
Language : English
Default : No
Forced : No

Text
ID : 4
Format : UTF-8
Codec ID : S_TEXT/UTF8
Codec ID/Info : UTF-8 Plain Text
Language : English
Default : Yes
Forced : No
скриншот  скриншот  скриншот  скриншот  скриншот  
pb.wtf



Скачать Люди Альфа через торрент http://i40.fastpic.ru/big/2012/0728/d8/6dfbc931755d772e73c243147cce81d8.jpg Скачать фильм Люди Альфа через торрент бесплантно в хорошем качестве Описание: Эксперт минобороны Ли Розен, специализируется на необычных явлениях, и он лидер команды из пяти человек с мозговыми аномалиями. ... 8.2 10 5
Торрент: Зарегистрирован [2019-01-17 09:09] · скачан: 5 раз
Статус: √ проверено
Размер: 45.22 GB
Как cкачать? Как скачать Люди Альфа через торрент | qTorrent

28-11-2019 20:33  

Отключить всю рекламу на сайте

    Дорогой пользователь! Огромная просьба, поблагодарите релизера, оцените раздачу и оставьте свои комментарий, если Вы скачали Люди Альфа через торрент бесплатно! Внесите свою лепту в развитие PiratBit!
    Комментировать посты могут только пользователи прошедшие не сложную регистрацию
    Показать сообщения:    

    Люди Альфа через торрент
    Скачать бесплатно Люди Альфа
    Люди Альфа скачать торрент
    Люди Альфа смотреть онлайн
    Cкачать фильм Люди Альфа бесплатно
    Люди Альфа скачать торрент в хорошем качестве
    Люди Альфа смотреть онлайн бесплатно в хорошем качестве


    Вы не можете начинать темы
    Вы не можете отвечать на сообщения
    Вы не можете редактировать свои сообщения
    Вы не можете удалять свои сообщения
    Вы не можете голосовать в опросах
    Вы не можете прикреплять файлы к сообщениям
    Вы можете скачивать файлы