Ссылка на приватное зеркало нашего сайта всего за 1$. Внимание количество ограничено!!!

2 сезон

iTunes

1 сезон

1

iTunes

iTunes

iTunes

1 сезон

RePack

30

ИГРА 18+

pack

ВАЖНО

!!Акция!!

Alien_RageХит недели

RePack

MK11
pack

Забери бонус

RePack

jed

!!Акция!!

Alien_Rage

RePack

fifa19

RePack

Assassins Creed: Odyssey

RePack

NEED FOR SPEED™ PAYBACK

4 сезон

9 сезон

Бесстыжие 9 сезон

Все сериалы

все сериалы на PB.wtf

RePack

FAR CRY 5
  

Чёрная Пантера / Black Panther (Райан Куглер) [2018, фантастика, боевик, приключения, UHD BDRemux 2160p] DUB [Dolby Vision TV] pb.wtf

Чёрная Пантера через торрент pb.wtf

Размер: 45.47 GB | Добавлен: 1 год 9 мес. назад | Торрент скачан:72 раза
Скачать  

17-01-2019 10:23 Чёрная Пантера Скачать торрент  

Чёрная Пантера / Black Panther«Да здравствует король»
Год выпуска: 2018
Страна: США
Жанр: фантастика, боевик, приключения
Продолжительность: 02:14:33
Перевод: Дублированный (Лицензия EUR)
Режиссер: Райан Куглер
В ролях:

Чедвик Боузман (T'Challa / Black Panther), Майкл Б. Джордан (Erik Killmonger), Лупита Нионго (Nakia), Данай Джекесай Гурира (Okoye), Мартин Фриман (Everett K. Ross), Дэниэл Калуя (W'Kabi), Летишиа Райт (Shuri), Уинстон Дьюк (M'Baku), Стерлинг К. Браун (N'Jobu), Анджела Бассетт (Ramonda), Форест Уитакер (Zuri), Энди Серкис (Ulysses Klaue)
Описание:
С первого взгляда можно решить, что Ваканда - обычная территория дикой Африки, но это не так. Здесь, в недрах пустынных земель, скрываются залежи уникального металла, способного поглощать вибрацию. Многие пытались добраться до него, разоряя всё на своём пути и принося смерть аборигенам, но каждый раз таинственный дух саванны - Чёрная Пантера - вставал на защиту угнетённых.
Рейтинг:

MPAA: PG-13 - Детям до 13 лет просмотр не желателен
Качество: UHD BDRemux 2160p | Dolby Vision TV
Формат: MP4
Видео: HEVC, 44315 Кбит/с, 3840x2160, 23.976 Кадр/с
Аудио: AC3, 6 ch, 640 kbps - Русский, Дубляж
Данный вид релизов (контейнер MP4) предназначен для встроенного в ТВ (соответственно, с поддержкой DV) плеер.
Т.Е. Можно использовать как USB flash/HDD, так и DLNA / Plex - подобные сервисы/программы. дополнительный-внешний плеер не обязателен.

Внимание!
На моделях LG 2016 возможны сюрпризы "через раз", 2017-2018 должно идти без сюрпризов )
Общее
Полное имя : Black.Panther.2018.UHD.BDRemux.2160p.DV.IVA.RUS.ExKinoRay.mp4
Формат : MPEG-4
Профиль формата : Base Media / Version 2
Идентификатор кодека : mp42 (mp42/iso6/isom/msdh/dby1)
Размер файла : 45,5 Гбайт
Продолжительность : 2 ч. 14 м.
Общий поток : 48,4 Мбит/сек
Дата кодирования : UTC 2019-01-17 04:52:16
Дата пометки : UTC 2019-01-17 04:52:16

Видео #1
Идентификатор : 1
Формат : HEVC
Формат/Информация : High Efficiency Video Coding
Коммерческое название : HDR10
Профиль формата : Main 10@L5.1@High
Идентификатор кодека : hev1
Идентификатор кодека/Информация : High Efficiency Video Coding
Продолжительность : 2 ч. 14 м.
Битрейт : 44,3 Мбит/сек
Ширина : 3840 пикселей
Высота : 2160 пикселей
Соотношение сторон : 16:9
Режим частоты кадров : Постоянный
Частота кадров : 23,976 (24000/1001) кадра/сек
Цветовое пространство : YUV
Субдискретизация насыщенности : 4:2:0 (Type 2)
Битовая глубина : 10 бит
Бит/(Пиксели*Кадры) : 0.223
Размер потока : 41,7 Гбайт (92%)
Default : Нет
Дата кодирования : UTC 2019-01-17 04:52:16
Дата пометки : UTC 2019-01-17 04:52:16
Цветовой диапазон : Limited
Основные цвета : BT.2020
Характеристики трансфера : PQ
Коэффициенты матрицы : BT.2020 non-constant
MasteringDisplay_ColorPrimaries : Display P3
MasteringDisplay_Luminance : min: 0.0001 cd/m2, max: 1000 cd/m2
Codec configuration box : hvcC

Видео #2
Идентификатор : 2
Формат : HEVC
Формат/Информация : High Efficiency Video Coding
Коммерческое название : HDR10
Профиль формата : Main 10@L5.1@High
Dolby Vision : 1.0, dvhe.07.06, EL+RPU
Идентификатор кодека : dvhe
Идентификатор кодека/Информация : High Efficiency Video Coding with Dolby Vision
Продолжительность : 2 ч. 14 м.
Битрейт : 3410 Кбит/сек
Ширина : 1920 пикселей
Высота : 1080 пикселей
Соотношение сторон : 16:9
Режим частоты кадров : Постоянный
Частота кадров : 23,976 (24000/1001) кадра/сек
Цветовое пространство : YUV
Субдискретизация насыщенности : 4:2:0 (Type 2)
Битовая глубина : 10 бит
Бит/(Пиксели*Кадры) : 0.069
Размер потока : 3,21 Гбайт (7%)
Default : Нет
Дата кодирования : UTC 2019-01-17 04:52:16
Дата пометки : UTC 2019-01-17 04:52:16
Цветовой диапазон : Limited
Основные цвета : BT.2020
Характеристики трансфера : PQ
Коэффициенты матрицы : BT.2020 non-constant
MasteringDisplay_ColorPrimaries : Display P3
MasteringDisplay_Luminance : min: 0.0001 cd/m2, max: 1000 cd/m2
Codec configuration box : hvcC+dvcC

Аудио
Идентификатор : 3
Формат : AC-3
Формат/Информация : Audio Coding 3
Коммерческое название : Dolby Digital
Идентификатор кодека : ac-3
Продолжительность : 2 ч. 14 м.
Вид битрейта : Постоянный
Битрейт : 640 Кбит/сек
Каналы : 6 каналов
Channel layout : L R C LFE Ls Rs
Частота : 48,0 КГц
Частота кадров : 31,250 кадров/сек (1536 SPF)
Битовая глубина : 16 бит
Метод сжатия : С потерями
Размер потока : 616 Мбайт (1%)
Язык : Russian
ServiceKind/String : Complete Main
Default : Нет
Дата кодирования : UTC 2019-01-17 04:52:16
Дата пометки : UTC 2019-01-17 04:52:16
pb.wtf



Скачать Чёрная Пантера через торрент https://d.radikal.ru/d06/1805/56/c3b245a86d74.png Скачать фильм Чёрная Пантера через торрент бесплантно в хорошем качестве Описание: С первого взгляда можно решить, что Ваканда - обычная территория дикой Африки, но это не так. Здесь, в недрах пустынных земель, ... 10 10 3
Торрент: Зарегистрирован [2019-01-17 10:23] · скачан: 72 раз
Статус: √ проверено
Размер: 45.47 GB
Как cкачать? Как скачать Чёрная Пантера через торрент | qTorrent

% Раздел Тема Автор DL S | L
Фильмы (HD 720p, 1080p) (48-60 fps) [ 5.5 GB ] Чёрная Пантера / Black Panther [2018 Hybrid 720p / 60 FPS ] от R.G. HD-Films slaventi-69 Скачать
2 | 0
Ultra HD (UHD: 2K, 4K, 8K) — видео сверхвысокой чёткости [ 16.31 GB ] Чёрная Пантера / Black Panther [2018 UHD BDRip 2160p] DUB [] bober100 Скачать
1 | 0
Фильмы (Blu-ray, BD-Remux, HDDVD) [ 40.08 GB ] Чёрная Пантера / Black Panther [2018 Blu-ray EUR 1080p] DUB [] bober100 Скачать
1 | 0
Фильмы (HD 720p, 1080p) (48-60 fps) [ 7.77 GB ] Чёрная Пантера / Black Panther [2018 BDRip - HEVC 1080p 12 bit 60 FPS] - [] dd2d3 Скачать
2 | 1
Фильмы (HD 720p, 1080p) (48-60 fps) [ 6.66 GB ] Чёрная Пантера / Black Panther [2018 BDRip 720p 60 fps от еnvy / NNNB] DUB | еnvy Скачать
13 | 0
Ultra HD (UHD: 2K, 4K, 8K) — видео сверхвысокой чёткости [ 12.43 GB ] Чёрная Пантера / Black Panther [2018 UHDRip 2160p HEVC ] Мичман37 Скачать
1 | 0
Фильмы [HD 720p, 1080p] (Хороший звук DUB, MVO) [ 6.01 GB ] Чёрная Пантера / Black Panther [2018 BDRip 1080p HEVC ] Мичман37 Скачать
2 | 0

28-11-2019 20:33  

Отключить всю рекламу на сайте

    Дорогой пользователь! Огромная просьба, поблагодарите релизера, оцените раздачу и оставьте свои комментарий, если Вы скачали Чёрная Пантера через торрент бесплатно! Внесите свою лепту в развитие PiratBit!
    Комментировать посты могут только пользователи прошедшие не сложную регистрацию
    Показать сообщения:    

    Чёрная Пантера через торрент
    Скачать бесплатно Чёрная Пантера
    Чёрная Пантера скачать торрент
    Чёрная Пантера смотреть онлайн
    Cкачать фильм Чёрная Пантера бесплатно
    Чёрная Пантера скачать торрент в хорошем качестве
    Чёрная Пантера смотреть онлайн бесплатно в хорошем качестве


    Вы не можете начинать темы
    Вы не можете отвечать на сообщения
    Вы не можете редактировать свои сообщения
    Вы не можете удалять свои сообщения
    Вы не можете голосовать в опросах
    Вы не можете прикреплять файлы к сообщениям
    Вы можете скачивать файлы