Всегда рабочее зеркало без VPN и Proxy просто перед .vidak.icu напиши любое слово или цифру, Пример http://9icg.vidak.icu

MVO

MVO

1 сезон

1

1 сезон

iTunes

1 сезон

13

1 сезон

Deluxe

pack

Рекомендуем

Repack

30

ВАЖНО

RePack

MK11

RePack

jed

RePack

fifa19

RePack

RDR2

RePack

NEED FOR SPEED™ PAYBACK

Кинопоиск HD

6 сезон

 Острые козырьки 6 сезон

Все сериалы

все сериалы на PB.wtf

RePack

FAR CRY 5
  
Magnet ссылка

Бросок кобры / G.I. Joe: The Rise of Cobra (Стивен Соммерс) [2009, фантастика, боевик, триллер, UHD BDRemux 2160p] DUB [Dolby Vision TV] pb.wtf

Бросок кобры через торрент pb.wtf

Размер: 45.79 GB | Добавлен: 3 года 6 мес. назад | Торрент скачан:18 раз
Смотреть онлайн Бросок кобры | Скачать    Ребята, помогите собрать деньги на оплату серверов!!!

17-01-2019 10:40 Бросок кобры Скачать торрент  

Бросок кобры / G.I. Joe: The Rise of Cobra«Когда остальные сдаются, они идут до конца»
Год выпуска: 2009
Страна: США, Чехия
Жанр: фантастика, боевик, триллер, приключения
Продолжительность: 01:57:59
Перевод: Дублированный [Лицензия]
Режиссер: Стивен Соммерс
В ролях:

Адевале Акинойе-Агбаже (Heavy Duty), Кристофер Экклстон (McCullen), Грегори Фетусси (Baron de Cobray), Джозеф Гордон-Левитт (The Doctor), Лео Ховард (Young Snake Eyes), Каролина Куркова (Cover Girl), Ли Бён-хон (Storm Shadow), Сиенна Миллер (Baroness), Дэвид Мюррэй (James McCullen - 1641), Рэйчел Николс (Scarlett), Кевин Дж. О’Коннор (Dr. Mindbender), Джералд Окамура (Hard Master)
Описание:
Базирующееся в Египте высокотехнологичное международное военное подразделение, известное как G.I. Joe, противостоит зловещей корпорации, руководимой знаменитым оружейным бароном.
Рейтинг:

MPAA: PG-13 - Детям до 13 лет просмотр не желателен
Качество: UHD BDRemux 2160p | Dolby Vision TV
Контейнер: MP4
Видео: HEVC, 49.3 Мбит/с, 3840x2160, 23.976 Кадр/с
Аудио: pусский - AC3, 6 ch, 640 Кбит/с
Данный вид релизов (контейнер MP4) предназначен для встроенного в ТВ (соответственно, с поддержкой DV) плеер.
Т.Е. Можно использовать как USB flash/HDD, так и DLNA / Plex - подобные сервисы/программы. дополнительный-внешний плеер не обязателен.

Внимание!
На моделях LG 2016 возможны сюрпризы "через раз", 2017-2018 должно идти без сюрпризов )
Кандидатура Сэма Уортингтона рассматривалась на роль Дюка.
Изначально Дэвид Мюррэй должен был сыграть Дестро.
Скип Вудс написал раннюю версию сценария с участием Алекса Манна и его жены Скарлетт. Главным злодеем должен был стать Райан.
Изначально Лоренцо Ди Бонавентура хотел, чтобы Марк Уолберг сыграл Дюка.
Коммону предлагали роль Роадблока, кузена Хэви Дюти. Он отказался. В дальнейшем роли Хэви Дюти и его кузена переписали, соединив их в один персонаж.
Для подготовки к роли Баронессы Сиенна Миллер усиленно тренировалась четыре месяца, набрав пять фунтов (около двух килограммов) мышечной массы.
Все сцены с участием Денниса Куэйда были сняты в первые два месяца съёмок.
В 2003 году Дон Мерфи должен был стать продюсером фильма, однако он договорился с «Hasbro Company», что будет продюсировать «Трансформеров» (2007).
Ларри Хама, создатель «G.I. Joe» (1985), был нанят в качестве консультанта.
Изначально Чаннинг Татум отклонил предложение сыграть в фильме, т. к. по его мнению, кино прославляло войну. Однако когда он прочитал сценарий, он передумал, т. к. картина ему больше представлялась как фантастический экшн-триллер, а не военное кино.
Друзья Ченнинг Татум и Джозеф Гордон-Левитт сыграли заклятых врагов — Дюка и Командира Кобры.
Рэй Парк, сыгравший Змеиные Глаза, в качестве подготовки к роли тренировался вушу, а также изучал персонажа в многочисленных комиксах и сериалах о G.I. Joe.
Экшн-сцены, действие которых происходит на парижских улицах, снимались в Праге.
Деннис Куэйд согласился сыграть Генерала Хоука по настоянию своего сына, являющегося большим поклонником G.I. Joe.
Рэйчел Николс была первоначальным выбором продюсеров на роль Скарлетт О’Хара.
Создателям настолько понравилось работать вместе с Деннисом Куэйдом, что специально для него в фильм добавили около 10-15 сцен.
Дизайн маски Командира Кобры был значительно изменен, т. к. версия 1985 года слишком сильно напоминали маски Ку Клукс Клана.
Частично манеру речи и голос своего персонажа Джозеф Гордон-Левитт старался воспроизвести у Криса Латта из «G.I. Joe» (1985), однако по большей части он использовал свое воображение в создании персонажа.
Съёмочный процесс длился 82 дня вместо предусмотренных 95 дней.
Фильм снимался практически без сценария и режиссёру приходилось придумывать всё находу из-за сжатых сроков, которые студия выделила на съёмку фильма.
Декорация для съёмки импульсной пушки на базе Кобры была высотой с пятиэтажный дом.
Стивен Соммерс 20 лет назад написал сценарий к фильму про костюмы-ускорители, но его тогда никто не купил. Свой замысел он смог воплотить в «Броске кобры».
Общее
Полное имя : G.I.Joe.The.Rise.of.Cobra.2009.UHD.BDRemux.2160p.DV.IVA.RUS.ExKinoRay.mp4
Формат : MPEG-4
Профиль формата : Base Media / Version 2
Идентификатор кодека : mp42 (mp42/iso6/isom/msdh/dby1)
Размер файла : 45,8 Гбайт
Продолжительность : 1 ч. 57 м.
Общий поток : 55,6 Мбит/сек
Дата кодирования : UTC 2019-01-17 07:20:50
Дата пометки : UTC 2019-01-17 07:20:50

Видео #1
Идентификатор : 1
Формат : HEVC
Формат/Информация : High Efficiency Video Coding
Коммерческое название : HDR10
Профиль формата : Main [email protected]@High
Идентификатор кодека : hev1
Идентификатор кодека/Информация : High Efficiency Video Coding
Продолжительность : 1 ч. 57 м.
Битрейт : 49,3 Мбит/сек
Ширина : 3840 пикселей
Высота : 2160 пикселей
Соотношение сторон : 16:9
Режим частоты кадров : Постоянный
Частота кадров : 23,976 (24000/1001) кадра/сек
Цветовое пространство : YUV
Субдискретизация насыщенности : 4:2:0 (Type 2)
Битовая глубина : 10 бит
Бит/(Пиксели*Кадры) : 0.248
Размер потока : 40,7 Гбайт (89%)
Default : Нет
Дата кодирования : UTC 2019-01-17 07:20:50
Дата пометки : UTC 2019-01-17 07:20:50
Цветовой диапазон : Limited
Основные цвета : BT.2020
Характеристики трансфера : PQ
Коэффициенты матрицы : BT.2020 non-constant
MasteringDisplay_ColorPrimaries : Display P3
MasteringDisplay_Luminance : min: 0.0001 cd/m2, max: 1000 cd/m2
Codec configuration box : hvcC

Видео #2
Идентификатор : 2
Формат : HEVC
Формат/Информация : High Efficiency Video Coding
Коммерческое название : HDR10
Профиль формата : Main [email protected]@High
Dolby Vision : 1.0, dvhe.07.06, EL+RPU
Идентификатор кодека : dvhe
Идентификатор кодека/Информация : High Efficiency Video Coding with Dolby Vision
Продолжительность : 1 ч. 57 м.
Битрейт : 5564 Кбит/сек
Ширина : 1920 пикселей
Высота : 1080 пикселей
Соотношение сторон : 16:9
Режим частоты кадров : Постоянный
Частота кадров : 23,976 (24000/1001) кадра/сек
Цветовое пространство : YUV
Субдискретизация насыщенности : 4:2:0 (Type 2)
Битовая глубина : 10 бит
Бит/(Пиксели*Кадры) : 0.112
Размер потока : 4,59 Гбайт (10%)
Default : Нет
Дата кодирования : UTC 2019-01-17 07:20:50
Дата пометки : UTC 2019-01-17 07:20:50
Цветовой диапазон : Limited
Основные цвета : BT.2020
Характеристики трансфера : PQ
Коэффициенты матрицы : BT.2020 non-constant
MasteringDisplay_ColorPrimaries : Display P3
MasteringDisplay_Luminance : min: 0.0001 cd/m2, max: 1000 cd/m2
Codec configuration box : hvcC+dvcC

Аудио
Идентификатор : 3
Формат : AC-3
Формат/Информация : Audio Coding 3
Коммерческое название : Dolby Digital
Идентификатор кодека : ac-3
Продолжительность : 1 ч. 57 м.
Вид битрейта : Постоянный
Битрейт : 640 Кбит/сек
Каналы : 6 каналов
Channel layout : L R C LFE Ls Rs
Частота : 48,0 КГц
Частота кадров : 31,250 кадров/сек (1536 SPF)
Битовая глубина : 16 бит
Метод сжатия : С потерями
Размер потока : 540 Мбайт (1%)
Язык : Russian
ServiceKind/String : Complete Main
Default : Нет
Дата кодирования : UTC 2019-01-17 07:20:50
Дата пометки : UTC 2019-01-17 07:20:50
pb.wtf



Скачать Бросок кобры через торрент https://c.radikal.ru/c16/1901/1f/6a14f66f905b.png Скачать, смотреть онлайн Бросок кобры бесплантно в хорошем качестве Описание: Базирующееся в Египте высокотехнологичное международное военное подразделение, известное как G.I. Joe, противостоит зловещей ... 10 10 2
Торрент: Зарегистрирован [2019-01-17 10:40] · скачан: 18 раз
Статус: √ проверено
Размер: 45.79 GB
Как cкачать? Как скачать Бросок кобры через торрент | UTorrent

% Раздел Тема Автор DL S | L
Фильмы (HD 720p, 1080p) (48-60 fps) [ 5.34 GB ] Бросок кобры / G.I. Joe: The Rise of Cobra [2009 BDRip 720p / 60 FPS ] от R.G. HD-Films slaventi-69 Скачать
3 | 1
Фильмы [HD 720p, 1080p] (Хороший звук DUB, MVO) [ 6.53 GB ] Бросок кобры / G.I. Joe: The Rise of Cobra [2009 BDRip 1080p ()] Мичман37 Скачать
1 | 0
Ultra HD (UHD: 2K, 4K, 8K) — видео сверхвысокой чёткости [ 63.47 GB ] Бросок кобры / G.I. Joe: The Rise of Cobra: Dilogy [2009-2013 UHD BDRip2160p] DUB + 3xAVO sheker187 Скачать
1 | 0
Ultra HD (UHD: 2K, 4K, 8K) — видео сверхвысокой чёткости [ 50.1 GB ] Бросок кобры / G.I. Joe: The Rise of Cobra [2009 UHD BDRemux 2160p] DUB + 2xAVO sheker187 Скачать
1 | 0
Ultra HD (UHD: 2K, 4K, 8K) — видео сверхвысокой чёткости [ 53.34 GB ] Бросок кобры / G.I. Joe: The Rise of Cobra [2009 UHD BDRemux 2160p] [Dolby Vision] sheker187 Скачать
1 | 0
Ultra HD (UHD: 2K, 4K, 8K) — видео сверхвысокой чёткости [ 60.81 GB ] Бросок кобры / G.I. Joe: The Rise of Cobra [2009 UHD Blu-ray EUR 2160p] [Dolby Vision] sheker187 Скачать
1 | 0
Фильмы [HD 720p, 1080p] (Хороший звук DUB, MVO) [ 15.22 GB ] Бросок кобры / G.I. Joe: The Rise of Cobra [2009 BDRip 1080p] PoBeP37 Скачать
1 | 0

28-11-2019 20:33  

Отключить вcю реклaмy на сайте

    Дорогой пользователь! Огромная просьба, поблагодарите релизера, оцените раздачу и оставьте свои комментарий, если Вы скачали Бросок кобры через торрент бесплатно!
    Комментировать посты могут только пользователи прошедшие не сложную регистрацию
    Показать сообщения:    

    Бросок кобры через торрент
    Скачать бесплатно Бросок кобры
    Бросок кобры скачать торрент
    Бросок кобры смотреть онлайн
    Cкачать фильм Бросок кобры бесплатно
    Бросок кобры скачать торрент в хорошем качестве
    Бросок кобры смотреть онлайн бесплатно в хорошем качестве


    Вы не можете начинать темы
    Вы не можете отвечать на сообщения
    Вы не можете редактировать свои сообщения
    Вы не можете удалять свои сообщения
    Вы не можете голосовать в опросах
    Вы не можете прикреплять файлы к сообщениям
    Вы можете скачивать файлы